<?xml version="1.0" standalone="no"?>
<!DOCTYPE svg PUBLIC "-//W3C//DTD SVG 1.1//EN" "http://www.w3.org/Graphics/SVG/1.1/DTD/svg11.dtd" >
<svg xmlns="http://www.w3.org/2000/svg">
<metadata>
<json>
<![CDATA[
{
	"fontFamily": "icon54com",
	"majorVersion": 1,
	"minorVersion": 0,
	"version": "Version 1.0",
	"fontId": "icon54com",
	"psName": "icon54com",
	"subFamily": "Regular",
	"fullName": "icon54com",
	"description": "Font generated by IcoMoon."
}
]]>
</json>
</metadata>
<defs>
<font id="icon54com" horiz-adv-x="1024">
<font-face units-per-em="1024" ascent="960" descent="-64" />
<missing-glyph horiz-adv-x="1024" />
<glyph unicode="&#x20;" horiz-adv-x="512" d="" />
<glyph unicode="&#xe900;" glyph-name="Add-Bag" data-tags="Add-Bag" d="M426.667 298.667h64v-64c0-12.8 8.533-21.333 21.333-21.333s21.333 8.533 21.333 21.333v64h64c12.8 0 21.333 8.533 21.333 21.333s-8.533 21.333-21.333 21.333h-64v64c0 12.8-8.533 21.333-21.333 21.333s-21.333-8.533-21.333-21.333v-64h-64c-12.8 0-21.333-8.533-21.333-21.333s8.533-21.333 21.333-21.333zM256 512c12.8 0 21.333 8.533 21.333 21.333v256c0 59.733 46.933 106.667 106.667 106.667h256c59.733 0 106.667-46.933 106.667-106.667v-256c0-12.8 8.533-21.333 21.333-21.333s21.333 8.533 21.333 21.333v256c0 81.067-68.267 149.333-149.333 149.333h-256c-81.067 0-149.333-68.267-149.333-149.333v-256c0-12.8 8.533-21.333 21.333-21.333zM981.333 682.667h-128c-12.8 0-21.333-8.533-21.333-21.333s8.533-21.333 21.333-21.333h106.667v-640h-896v640h106.667c12.8 0 21.333 8.533 21.333 21.333s-8.533 21.333-21.333 21.333h-128c-12.8 0-21.333-8.533-21.333-21.333v-682.667c0-12.8 8.533-21.333 21.333-21.333h938.667c12.8 0 21.333 8.533 21.333 21.333v682.667c0 12.8-8.533 21.333-21.333 21.333zM682.667 640c12.8 0 21.333 8.533 21.333 21.333s-8.533 21.333-21.333 21.333h-341.333c-12.8 0-21.333-8.533-21.333-21.333s8.533-21.333 21.333-21.333h341.333zM512 85.333c128 0 234.667 106.667 234.667 234.667s-106.667 234.667-234.667 234.667-234.667-106.667-234.667-234.667 106.667-234.667 234.667-234.667zM512 512c106.667 0 192-85.333 192-192s-85.333-192-192-192-192 85.333-192 192 85.333 192 192 192z" />
<glyph unicode="&#xe901;" glyph-name="Add-Cart2" data-tags="Add-Cart 2" d="M942.933 490.667c-12.8 4.267-21.333-4.267-25.6-17.067l-17.067-72.533-622.933-81.067-76.8 384h290.133c12.8 0 21.333 8.533 21.333 21.333s-8.533 21.333-21.333 21.333h-298.667l-21.333 110.933c0 8.533-12.8 17.067-21.333 17.067h-128c-12.8 0-21.333-8.533-21.333-21.333s8.533-21.333 21.333-21.333h110.933l102.4-520.533c12.8-68.267 76.8-119.467 145.067-119.467h490.667c12.8 0 21.333 8.533 21.333 21.333s-8.533 21.333-21.333 21.333h-486.4c-34.133 0-68.267 17.067-85.333 46.933l622.933 85.333c8.533 0 17.067 8.533 17.067 17.067l21.333 85.333c4.267 4.267-4.267 17.067-17.067 21.333zM362.667 149.333c-59.733 0-106.667-46.933-106.667-106.667s46.933-106.667 106.667-106.667c59.733 0 106.667 46.933 106.667 106.667s-46.933 106.667-106.667 106.667zM362.667-21.333c-34.133 0-64 29.867-64 64s29.867 64 64 64 64-29.867 64-64-29.867-64-64-64zM704 704h64v-64c0-12.8 8.533-21.333 21.333-21.333s21.333 8.533 21.333 21.333v64h64c12.8 0 21.333 8.533 21.333 21.333s-8.533 21.333-21.333 21.333h-64v64c0 12.8-8.533 21.333-21.333 21.333s-21.333-8.533-21.333-21.333v-64h-64c-12.8 0-21.333-8.533-21.333-21.333s8.533-21.333 21.333-21.333zM789.333 149.333c-59.733 0-106.667-46.933-106.667-106.667s46.933-106.667 106.667-106.667c59.733 0 106.667 46.933 106.667 106.667s-46.933 106.667-106.667 106.667zM789.333-21.333c-34.133 0-64 29.867-64 64s29.867 64 64 64 64-29.867 64-64-29.867-64-64-64zM789.333 490.667c128 0 234.667 106.667 234.667 234.667s-106.667 234.667-234.667 234.667-234.667-106.667-234.667-234.667 106.667-234.667 234.667-234.667zM789.333 917.333c106.667 0 192-85.333 192-192s-85.333-192-192-192-192 85.333-192 192 85.333 192 192 192z" />
<glyph unicode="&#xe902;" glyph-name="Add-Chat1" data-tags="Add-Chat 1" d="M213.333 597.333c0-35.285 28.715-64 64-64s64 28.715 64 64c0 35.285-28.715 64-64 64s-64-28.715-64-64zM298.667 597.333c0-11.776-9.6-21.333-21.333-21.333s-21.333 9.557-21.333 21.333 9.6 21.333 21.333 21.333 21.333-9.557 21.333-21.333zM490.667 661.333c-35.285 0-64-28.715-64-64s28.715-64 64-64 64 28.715 64 64c0 35.285-28.715 64-64 64zM490.667 576c-11.733 0-21.333 9.557-21.333 21.333s9.6 21.333 21.333 21.333 21.333-9.557 21.333-21.333-9.6-21.333-21.333-21.333zM640 597.333c0-35.285 28.715-64 64-64s64 28.715 64 64c0 35.285-28.715 64-64 64s-64-28.715-64-64zM725.333 597.333c0-11.776-9.6-21.333-21.333-21.333s-21.333 9.557-21.333 21.333 9.6 21.333 21.333 21.333 21.333-9.557 21.333-21.333zM512 277.333h-21.333c-4.651 0-9.131-1.493-12.8-4.267l-269.056-201.728 87.595 175.147c3.328 6.571 2.987 14.464-0.896 20.736-3.925 6.272-10.795 10.112-18.176 10.112h-128c-58.837 0-106.667 47.872-106.667 106.667v426.667c0 58.795 47.829 106.667 106.667 106.667h682.667c58.837 0 106.667-47.872 106.667-106.667v-405.333c0-11.776 9.557-21.333 21.333-21.333s21.333 9.557 21.333 21.333v405.333c0 82.347-66.987 149.333-149.333 149.333h-682.667c-82.347 0-149.333-66.987-149.333-149.333v-426.667c0-82.347 66.987-149.333 149.333-149.333h93.483l-112.555-225.152c-4.395-8.832-2.176-19.584 5.419-25.899 3.925-3.285 8.789-4.949 13.653-4.949 4.48 0 9.003 1.408 12.8 4.267l335.659 251.733h14.208c11.776 0 21.333 9.557 21.333 21.333s-9.557 21.333-21.333 21.333zM789.333 405.333c-129.365 0-234.667-105.259-234.667-234.667s105.301-234.667 234.667-234.667 234.667 105.259 234.667 234.667-105.301 234.667-234.667 234.667zM789.333-21.333c-105.856 0-192 86.144-192 192s86.144 192 192 192 192-86.144 192-192-86.144-192-192-192zM874.667 192h-64v64c0 11.776-9.557 21.333-21.333 21.333s-21.333-9.557-21.333-21.333v-64h-64c-11.776 0-21.333-9.557-21.333-21.333s9.557-21.333 21.333-21.333h64v-64c0-11.776 9.557-21.333 21.333-21.333s21.333 9.557 21.333 21.333v64h64c11.776 0 21.333 9.557 21.333 21.333s-9.557 21.333-21.333 21.333z" />
<glyph unicode="&#xe903;" glyph-name="Add-Chat2" data-tags="Add-Chat 2" d="M512 746.667c-129.365 0-234.667-105.259-234.667-234.667s105.301-234.667 234.667-234.667 234.667 105.259 234.667 234.667-105.301 234.667-234.667 234.667zM512 320c-105.856 0-192 86.144-192 192s86.144 192 192 192 192-86.144 192-192-86.144-192-192-192zM597.333 533.333h-64v64c0 11.776-9.557 21.333-21.333 21.333s-21.333-9.557-21.333-21.333v-64h-64c-11.776 0-21.333-9.557-21.333-21.333s9.557-21.333 21.333-21.333h64v-64c0-11.776 9.557-21.333 21.333-21.333s21.333 9.557 21.333 21.333v64h64c11.776 0 21.333 9.557 21.333 21.333s-9.557 21.333-21.333 21.333zM512 917.333c-270.549 0-490.667-181.845-490.667-405.333 0-108.715 53.76-213.504 148.011-289.664l-61.824-216.491c-2.603-9.003 0.981-18.603 8.875-23.723 3.541-2.304 7.552-3.456 11.605-3.456 4.864 0 9.728 1.664 13.696 4.907l184.149 153.515c59.477-20.181 122.027-30.421 186.155-30.421 270.549 0 490.667 181.845 490.667 405.333s-220.117 405.333-490.667 405.333zM512 149.333c-63.275 0-124.971 10.752-183.211 31.957-7.125 2.645-15.104 1.195-20.949-3.627l-140.288-116.949 46.763 163.755c2.389 8.448-0.597 17.536-7.637 22.869-92.032 69.589-142.677 163.584-142.677 264.661 0 199.979 200.96 362.667 448 362.667s448-162.688 448-362.667-200.96-362.667-448-362.667z" />
<glyph unicode="&#xe904;" glyph-name="Add-Chat3" data-tags="Add-Chat 3" d="M789.333 405.333c-129.365 0-234.667-105.259-234.667-234.667s105.301-234.667 234.667-234.667 234.667 105.259 234.667 234.667-105.301 234.667-234.667 234.667zM789.333-21.333c-105.856 0-192 86.144-192 192s86.144 192 192 192 192-86.144 192-192-86.144-192-192-192zM874.667 192h-64v64c0 11.776-9.557 21.333-21.333 21.333s-21.333-9.557-21.333-21.333v-64h-64c-11.776 0-21.333-9.557-21.333-21.333s9.557-21.333 21.333-21.333h64v-64c0-11.776 9.557-21.333 21.333-21.333s21.333 9.557 21.333 21.333v64h64c11.776 0 21.333 9.557 21.333 21.333s-9.557 21.333-21.333 21.333zM490.667 234.667h-256c-6.357 0-12.331-2.816-16.384-7.68l-175.616-210.731v751.744c0 82.347 66.987 149.333 149.333 149.333h597.333c82.347 0 149.333-66.987 149.333-149.333v-341.333c0-11.776 9.557-21.333 21.333-21.333s21.333 9.557 21.333 21.333v341.333c0 105.856-86.144 192-192 192h-597.333c-105.856 0-192-86.144-192-192v-810.667c0-8.96 5.632-16.981 14.080-20.053 2.389-0.853 4.821-1.28 7.253-1.28 6.229 0 12.245 2.688 16.341 7.68l206.976 248.32h246.016c11.776 0 21.333 9.557 21.333 21.333s-9.557 21.333-21.333 21.333zM213.333 554.667c0-35.285 28.715-64 64-64s64 28.715 64 64-28.715 64-64 64-64-28.715-64-64zM298.667 554.667c0-11.776-9.6-21.333-21.333-21.333s-21.333 9.557-21.333 21.333 9.6 21.333 21.333 21.333 21.333-9.557 21.333-21.333zM490.667 618.667c-35.285 0-64-28.715-64-64s28.715-64 64-64 64 28.715 64 64-28.715 64-64 64zM490.667 533.333c-11.733 0-21.333 9.557-21.333 21.333s9.6 21.333 21.333 21.333 21.333-9.557 21.333-21.333-9.6-21.333-21.333-21.333zM640 554.667c0-35.285 28.715-64 64-64s64 28.715 64 64-28.715 64-64 64-64-28.715-64-64zM725.333 554.667c0-11.776-9.6-21.333-21.333-21.333s-21.333 9.557-21.333 21.333 9.6 21.333 21.333 21.333 21.333-9.557 21.333-21.333z" />
<glyph unicode="&#xe905;" glyph-name="Bitcoin-Bag" data-tags="Bitcoin-Bag" d="M256 512c12.8 0 21.333 8.533 21.333 21.333v256c0 59.733 46.933 106.667 106.667 106.667h256c59.733 0 106.667-46.933 106.667-106.667v-256c0-12.8 8.533-21.333 21.333-21.333s21.333 8.533 21.333 21.333v256c0 81.067-68.267 149.333-149.333 149.333h-256c-81.067 0-149.333-68.267-149.333-149.333v-256c0-12.8 8.533-21.333 21.333-21.333zM512 85.333c128 0 234.667 106.667 234.667 234.667s-106.667 234.667-234.667 234.667-234.667-106.667-234.667-234.667 106.667-234.667 234.667-234.667zM512 512c106.667 0 192-85.333 192-192s-85.333-192-192-192-192 85.333-192 192 85.333 192 192 192zM981.333 682.667h-128c-12.8 0-21.333-8.533-21.333-21.333s8.533-21.333 21.333-21.333h106.667v-640h-896v640h106.667c12.8 0 21.333 8.533 21.333 21.333s-8.533 21.333-21.333 21.333h-128c-12.8 0-21.333-8.533-21.333-21.333v-682.667c0-12.8 8.533-21.333 21.333-21.333h938.667c12.8 0 21.333 8.533 21.333 21.333v682.667c0 12.8-8.533 21.333-21.333 21.333zM426.667 213.333h21.333v-21.333c0-12.8 8.533-21.333 21.333-21.333s21.333 8.533 21.333 21.333v21.333h42.667v-21.333c0-12.8 8.533-21.333 21.333-21.333s21.333 8.533 21.333 21.333v25.6c25.6 8.533 42.667 34.133 42.667 59.733 0 17.067-4.267 29.867-17.067 42.667 8.533 12.8 17.067 25.6 17.067 42.667 0 29.867-17.067 51.2-42.667 59.733v25.6c0 12.8-8.533 21.333-21.333 21.333s-21.333-8.533-21.333-21.333v-21.333h-42.667v21.333c0 12.8-8.533 21.333-21.333 21.333s-21.333-8.533-21.333-21.333v-21.333h-21.333c-12.8 0-21.333-8.533-21.333-21.333v-170.667c0-12.8 8.533-21.333 21.333-21.333zM448 384h106.667c12.8 0 21.333-8.533 21.333-21.333s-8.533-21.333-21.333-21.333h-106.667v42.667zM448 298.667h106.667c12.8 0 21.333-8.533 21.333-21.333s-8.533-21.333-21.333-21.333h-106.667v42.667zM682.667 640c12.8 0 21.333 8.533 21.333 21.333s-8.533 21.333-21.333 21.333h-341.333c-12.8 0-21.333-8.533-21.333-21.333s8.533-21.333 21.333-21.333h341.333z" />
<glyph unicode="&#xe906;" glyph-name="Bitcoin-Cart" data-tags="Bitcoin-Cart" d="M942.933 490.667c-12.8 4.267-21.333-4.267-25.6-17.067l-17.067-72.533-622.933-81.067-76.8 384h290.133c12.8 0 21.333 8.533 21.333 21.333s-8.533 21.333-21.333 21.333h-298.667l-21.333 110.933c0 8.533-12.8 17.067-21.333 17.067h-128c-12.8 0-21.333-8.533-21.333-21.333s8.533-21.333 21.333-21.333h110.933l102.4-520.533c12.8-68.267 76.8-119.467 145.067-119.467h490.667c12.8 0 21.333 8.533 21.333 21.333s-8.533 21.333-21.333 21.333h-486.4c-34.133 0-68.267 17.067-85.333 46.933l622.933 85.333c8.533 0 17.067 8.533 17.067 17.067l21.333 85.333c4.267 4.267-4.267 17.067-17.067 21.333zM362.667 149.333c-59.733 0-106.667-46.933-106.667-106.667s46.933-106.667 106.667-106.667c59.733 0 106.667 46.933 106.667 106.667s-46.933 106.667-106.667 106.667zM362.667-21.333c-34.133 0-64 29.867-64 64s29.867 64 64 64 64-29.867 64-64-29.867-64-64-64zM704 618.667h21.333v-21.333c0-12.8 8.533-21.333 21.333-21.333s21.333 8.533 21.333 21.333v21.333h42.667v-21.333c0-12.8 8.533-21.333 21.333-21.333s21.333 8.533 21.333 21.333v25.6c25.6 8.533 42.667 34.133 42.667 59.733 0 17.067-4.267 29.867-17.067 42.667 8.533 12.8 17.067 25.6 17.067 42.667 0 29.867-17.067 51.2-42.667 59.733v25.6c0 12.8-8.533 21.333-21.333 21.333s-21.333-8.533-21.333-21.333v-21.333h-42.667v21.333c0 12.8-8.533 21.333-21.333 21.333s-21.333-8.533-21.333-21.333v-21.333h-21.333c-12.8 0-21.333-8.533-21.333-21.333v-170.667c0-12.8 8.533-21.333 21.333-21.333zM725.333 789.333h106.667c12.8 0 21.333-8.533 21.333-21.333s-8.533-21.333-21.333-21.333h-106.667v42.667zM725.333 704h106.667c12.8 0 21.333-8.533 21.333-21.333s-8.533-21.333-21.333-21.333h-106.667v42.667zM789.333 149.333c-59.733 0-106.667-46.933-106.667-106.667s46.933-106.667 106.667-106.667c59.733 0 106.667 46.933 106.667 106.667s-46.933 106.667-106.667 106.667zM789.333-21.333c-34.133 0-64 29.867-64 64s29.867 64 64 64 64-29.867 64-64-29.867-64-64-64zM789.333 490.667c128 0 234.667 106.667 234.667 234.667s-106.667 234.667-234.667 234.667-234.667-106.667-234.667-234.667 106.667-234.667 234.667-234.667zM789.333 917.333c106.667 0 192-85.333 192-192s-85.333-192-192-192-192 85.333-192 192 85.333 192 192 192z" />
<glyph unicode="&#xe907;" glyph-name="Cart" data-tags="Cart" d="M1019.733 780.8c-4.267 4.267-8.533 8.533-17.067 8.533h-810.667l-21.333 110.933c0 8.533-12.8 17.067-21.333 17.067h-128c-12.8 0-21.333-8.533-21.333-21.333s8.533-21.333 21.333-21.333h110.933l102.4-520.533c12.8-68.267 76.8-119.467 145.067-119.467h490.667c12.8 0 21.333 8.533 21.333 21.333s-8.533 21.333-21.333 21.333h-486.4c-34.133 0-68.267 17.067-85.333 46.933l622.933 85.333c8.533 0 17.067 8.533 17.067 17.067l85.333 341.333c0 0 0 8.533-4.267 12.8zM900.267 448l-622.933-81.067-76.8 384h772.267l-72.533-302.933zM362.667 192c-59.733 0-106.667-46.933-106.667-106.667s46.933-106.667 106.667-106.667c59.733 0 106.667 46.933 106.667 106.667s-46.933 106.667-106.667 106.667zM362.667 21.333c-34.133 0-64 29.867-64 64s29.867 64 64 64 64-29.867 64-64-29.867-64-64-64zM789.333 192c-59.733 0-106.667-46.933-106.667-106.667s46.933-106.667 106.667-106.667c59.733 0 106.667 46.933 106.667 106.667s-46.933 106.667-106.667 106.667zM789.333 21.333c-34.133 0-64 29.867-64 64s29.867 64 64 64 64-29.867 64-64-29.867-64-64-64z" />
<glyph unicode="&#xe908;" glyph-name="Char-Search2" data-tags="Char-Search 2" d="M624.896 471.893c22.485 28.885 36.437 64.725 36.437 104.107 0 94.123-76.544 170.667-170.667 170.667s-170.667-76.544-170.667-170.667 76.544-170.667 170.667-170.667c39.339 0 75.179 13.909 104.064 36.395l115.499-115.499c4.181-4.139 9.643-6.229 15.104-6.229s10.923 2.091 15.061 6.229c8.32 8.32 8.32 21.845 0 30.165l-115.499 115.499zM362.667 576c0 70.571 57.429 128 128 128s128-57.429 128-128-57.429-128-128-128-128 57.429-128 128zM512 917.333c-270.549 0-490.667-172.288-490.667-384 0-106.709 56.875-208.341 156.587-280.96l-70.443-246.528c-2.56-9.003 1.024-18.603 8.875-23.723 3.584-2.304 7.595-3.456 11.648-3.456 4.864 0 9.728 1.664 13.653 4.949l221.013 184.192c48.939-12.245 99.115-18.475 149.333-18.475 270.549 0 490.667 172.288 490.667 384s-220.117 384-490.667 384zM512 192c-50.219 0-100.309 6.656-148.992 19.797-6.699 1.749-13.909 0.213-19.243-4.224l-176.256-146.901 55.595 194.56c2.517 8.875-0.896 18.347-8.533 23.509-95.659 65.024-150.571 157.824-150.571 254.592 0 188.203 200.96 341.333 448 341.333s448-153.131 448-341.333-200.96-341.333-448-341.333z" />
<glyph unicode="&#xe909;" glyph-name="Chat-1" data-tags="Chat-1" d="M618.667 405.333h-298.667c-11.776 0-21.333-9.557-21.333-21.333s9.557-21.333 21.333-21.333h298.667c11.776 0 21.333 9.557 21.333 21.333s-9.557 21.333-21.333 21.333zM618.667 277.333h-298.667c-11.776 0-21.333-9.557-21.333-21.333s9.557-21.333 21.333-21.333h298.667c11.776 0 21.333 9.557 21.333 21.333s-9.557 21.333-21.333 21.333zM618.667 149.333h-298.667c-11.776 0-21.333-9.557-21.333-21.333s9.557-21.333 21.333-21.333h298.667c11.776 0 21.333 9.557 21.333 21.333s-9.557 21.333-21.333 21.333zM1022.379 904.149c-3.285 7.979-11.093 13.184-19.712 13.184h-640c-58.837 0-106.667-47.872-106.667-106.667v-277.333h-234.667c-8.619 0-16.384-5.163-19.712-13.141s-1.493-17.152 4.608-23.253l164.437-164.437v-247.168c0-58.795 47.829-106.667 106.667-106.667h384c58.837 0 106.667 47.872 106.667 106.667v279.509c48.64 9.899 85.333 53.035 85.333 104.491v247.168l164.437 164.395c6.059 6.101 7.893 15.275 4.608 23.253zM725.291 85.333c0-35.285-28.715-64-64-64h-384c-35.285 0-64 28.715-64 64v256c0 5.675-2.219 11.093-6.229 15.104l-134.229 134.229h588.459c35.285 0 64-28.715 64-64v-341.333zM816.896 740.437c-3.968-4.011-6.229-9.429-6.229-15.104v-256c0-27.776-17.877-51.243-42.667-60.075v17.408c0 58.795-47.829 106.667-106.667 106.667h-362.667v277.333c0 35.285 28.715 64 64 64h588.459l-134.229-134.229zM405.333 746.667h298.667c11.776 0 21.333 9.557 21.333 21.333s-9.557 21.333-21.333 21.333h-298.667c-11.776 0-21.333-9.557-21.333-21.333s9.557-21.333 21.333-21.333zM405.333 618.667h298.667c11.776 0 21.333 9.557 21.333 21.333s-9.557 21.333-21.333 21.333h-298.667c-11.776 0-21.333-9.557-21.333-21.333s9.557-21.333 21.333-21.333z" />
<glyph unicode="&#xe90a;" glyph-name="Chat-2" data-tags="Chat-2" d="M1024 320.043c0 130.432-122.624 238.165-280.405 253.824l-12.843 72.875c-47.659 136.363-191.317 227.925-357.419 227.925-205.909 0-373.333-143.531-373.333-320 0-94.72 47.744-182.571 131.669-243.584l-44.075-88.192c-4.181-8.405-2.389-18.603 4.437-25.045 4.096-3.84 9.301-5.845 14.635-5.845 3.627 0 7.296 0.896 10.496 2.816l112.896 64.512c29.909-10.624 61.824-17.92 96.299-21.76l76.288-2.773c44.032-99.328 162.304-170.752 301.355-170.752 33.024 0 65.92 4.181 98.005 12.459l105.771-52.907c3.115-1.536 6.315-2.261 9.557-2.261 5.248 0 10.411 1.92 14.464 5.632 6.485 6.016 8.619 15.445 5.333 23.637l-28.971 72.491c72.875 48.384 115.84 120.875 115.84 196.949zM329.643 280.064c-32.939 3.755-64.469 11.392-93.739 22.656-5.931 2.219-12.715 1.749-18.261-1.408l-60.373-34.517 20.864 41.771c4.821 9.685 1.664 21.461-7.424 27.392-81.365 53.163-128.043 132.864-128.043 218.709 0 152.917 148.352 277.333 330.667 277.333 145.707 0 276.139-82.005 316.288-195.925l10.411-60.203c-174.635-1.749-316.032-115.755-316.032-255.829 0-14.379 1.835-28.373 4.693-42.112l-59.051 2.133zM870.997 150.144c-9.131-5.291-13.013-16.512-9.045-26.325l14.763-36.949-62.848 31.403c-3.029 1.493-6.272 2.261-9.557 2.261-1.92 0-3.883-0.299-5.717-0.811-30.848-8.661-62.635-13.056-94.507-13.056-152.917 0-277.333 95.701-277.333 213.333s124.416 213.333 277.333 213.333 277.333-95.701 277.333-213.333c0-66.987-40.235-128.939-110.421-169.856z" />
<glyph unicode="&#xe90b;" glyph-name="Chat-3" data-tags="Chat-3" d="M917.333 704h-279.509c-9.899 48.597-53.035 85.333-104.491 85.333h-426.667c-58.795 0-106.667-47.872-106.667-106.667v-256c0-58.795 47.872-106.667 106.667-106.667h13.056l-33.28-99.925c-2.944-8.875 0.213-18.603 7.765-24.064 3.712-2.688 8.064-4.011 12.459-4.011 4.48 0 9.003 1.408 12.8 4.267l164.992 123.733h101.717c9.899-48.597 53.035-85.333 104.491-85.333h248.875l164.992-123.733c3.797-2.859 8.32-4.267 12.8-4.267 4.395 0 8.747 1.323 12.459 4.011 7.595 5.461 10.709 15.189 7.765 24.064l-33.28 99.925h13.056c58.795 0 106.667 47.872 106.667 106.667v256c0 58.795-47.872 106.667-106.667 106.667zM277.333 362.667c-4.651 0-9.131-1.493-12.8-4.267l-116.053-87.040 21.077 63.189c2.219 6.528 1.109 13.696-2.901 19.243-4.011 5.589-10.453 8.875-17.323 8.875h-42.667c-35.285 0-64 28.715-64 64v256c0 35.285 28.715 64 64 64h426.667c27.776 0 51.243-17.877 60.075-42.667h-102.741c-58.795 0-106.667-47.872-106.667-106.667v-234.667h-106.667zM981.333 341.333c0-35.285-28.715-64-64-64h-42.667c-6.869 0-13.312-3.328-17.323-8.875-3.968-5.589-5.077-12.757-2.901-19.243l21.077-63.189-116.053 87.040c-3.712 2.773-8.192 4.267-12.8 4.267h-256c-35.285 0-64 28.715-64 64v256c0 35.285 28.715 64 64 64h426.667c35.285 0 64-28.715 64-64v-256z" />
<glyph unicode="&#xe90c;" glyph-name="Chat-Bubble1" data-tags="Chat-Bubble 1" d="M810.667 960h-597.333c-105.856 0-192-86.144-192-192v-810.667c0-8.96 5.632-16.981 14.080-20.053 2.389-0.853 4.821-1.28 7.253-1.28 6.229 0 12.245 2.688 16.341 7.68l206.976 248.32h544.683c105.856 0 192 86.144 192 192v384c0 105.856-86.144 192-192 192zM960 384c0-82.347-66.987-149.333-149.333-149.333h-554.667c-6.357 0-12.331-2.816-16.384-7.68l-175.616-210.731v751.744c0 82.347 66.987 149.333 149.333 149.333h597.333c82.347 0 149.333-66.987 149.333-149.333v-384zM298.667 618.667c-35.285 0-64-28.715-64-64s28.715-64 64-64 64 28.715 64 64c0 35.285-28.715 64-64 64zM298.667 533.333c-11.733 0-21.333 9.557-21.333 21.333s9.6 21.333 21.333 21.333 21.333-9.557 21.333-21.333-9.6-21.333-21.333-21.333zM512 618.667c-35.285 0-64-28.715-64-64s28.715-64 64-64 64 28.715 64 64c0 35.285-28.715 64-64 64zM512 533.333c-11.733 0-21.333 9.557-21.333 21.333s9.6 21.333 21.333 21.333 21.333-9.557 21.333-21.333-9.6-21.333-21.333-21.333zM725.333 618.667c-35.285 0-64-28.715-64-64s28.715-64 64-64 64 28.715 64 64c0 35.285-28.715 64-64 64zM725.333 533.333c-11.733 0-21.333 9.557-21.333 21.333s9.6 21.333 21.333 21.333 21.333-9.557 21.333-21.333-9.6-21.333-21.333-21.333z" />
<glyph unicode="&#xe90d;" glyph-name="Chat-Bubble2" data-tags="Chat-Bubble 2" d="M298.667 576c-35.285 0-64-28.715-64-64s28.715-64 64-64c35.285 0 64 28.715 64 64s-28.715 64-64 64zM298.667 490.667c-11.733 0-21.333 9.557-21.333 21.333s9.6 21.333 21.333 21.333c11.733 0 21.333-9.557 21.333-21.333s-9.6-21.333-21.333-21.333zM512 576c-35.285 0-64-28.715-64-64s28.715-64 64-64c35.285 0 64 28.715 64 64s-28.715 64-64 64zM512 490.667c-11.733 0-21.333 9.557-21.333 21.333s9.6 21.333 21.333 21.333c11.733 0 21.333-9.557 21.333-21.333s-9.6-21.333-21.333-21.333zM725.333 576c-35.285 0-64-28.715-64-64s28.715-64 64-64c35.285 0 64 28.715 64 64s-28.715 64-64 64zM725.333 490.667c-11.733 0-21.333 9.557-21.333 21.333s9.6 21.333 21.333 21.333c11.733 0 21.333-9.557 21.333-21.333s-9.6-21.333-21.333-21.333zM512 917.333c-270.549 0-490.667-172.288-490.667-384 0-106.667 56.832-208.299 156.587-280.96l-70.4-246.528c-2.603-9.003 0.981-18.603 8.875-23.723 3.541-2.304 7.552-3.456 11.605-3.456 4.864 0 9.728 1.664 13.653 4.949l221.056 184.192c48.853-12.245 99.029-18.475 149.291-18.475 270.549 0 490.667 172.288 490.667 384s-220.117 384-490.667 384zM511.957 192c-50.176 0-100.267 6.656-148.992 19.797-6.699 1.749-13.867 0.213-19.2-4.224l-176.256-146.901 55.552 194.56c2.56 8.875-0.853 18.347-8.491 23.509-95.701 65.024-150.571 157.824-150.571 254.592 0 188.203 200.96 341.333 448 341.333s447.957-153.131 447.957-341.333-200.96-341.333-448-341.333z" />
<glyph unicode="&#xe90e;" glyph-name="Chat-Bubble4" data-tags="Chat-Bubble 4" d="M512 960c-282.325 0-512-220.117-512-490.667 0-139.435 62.080-271.957 170.667-365.227v-146.773c0-7.765 4.224-14.891 11.008-18.645 3.2-1.792 6.784-2.688 10.325-2.688 3.925 0 7.851 1.067 11.307 3.243l118.912 74.283c60.416-23.125 124.203-34.859 189.781-34.859 282.325 0 512 220.117 512 490.667s-229.675 490.667-512 490.667zM512 21.333c-63.744 0-125.611 12.032-183.936 35.755-6.315 2.56-13.568 1.963-19.371-1.664l-95.36-59.605v118.229c0 6.4-2.859 12.416-7.765 16.469-103.509 85.376-162.901 208.853-162.901 338.816 0 247.040 210.56 448 469.333 448s469.333-200.96 469.333-448-210.56-448-469.333-448zM298.667 448c0-23.564-19.103-42.667-42.667-42.667s-42.667 19.103-42.667 42.667c0 23.564 19.103 42.667 42.667 42.667s42.667-19.103 42.667-42.667zM554.667 448c0-23.564-19.103-42.667-42.667-42.667s-42.667 19.103-42.667 42.667c0 23.564 19.103 42.667 42.667 42.667s42.667-19.103 42.667-42.667zM810.667 448c0-23.564-19.103-42.667-42.667-42.667s-42.667 19.103-42.667 42.667c0 23.564 19.103 42.667 42.667 42.667s42.667-19.103 42.667-42.667z" />
<glyph unicode="&#xe90f;" glyph-name="Chat-Bubble5" data-tags="Chat-Bubble 5" d="M512 960c-247.040 0-448-200.96-448-448 0-239.872 189.483-436.309 426.667-447.488v-107.179c0-6.741 3.2-13.099 8.619-17.109 3.712-2.773 8.192-4.224 12.715-4.224 2.091 0 4.181 0.299 6.229 0.896 247.68 75.179 441.771 327.808 441.771 575.104 0 247.040-200.96 448-448 448zM533.333-13.013v98.347c0 11.776-9.557 21.333-21.333 21.333-223.488 0-405.333 181.845-405.333 405.333s181.845 405.333 405.333 405.333 405.333-181.845 405.333-405.333c0-216.576-169.856-445.909-384-525.013zM298.667 576c-35.285 0-64-28.715-64-64s28.715-64 64-64 64 28.715 64 64c0 35.285-28.715 64-64 64zM298.667 490.667c-11.733 0-21.333 9.557-21.333 21.333s9.6 21.333 21.333 21.333 21.333-9.557 21.333-21.333-9.6-21.333-21.333-21.333zM512 576c-35.285 0-64-28.715-64-64s28.715-64 64-64 64 28.715 64 64c0 35.285-28.715 64-64 64zM512 490.667c-11.733 0-21.333 9.557-21.333 21.333s9.6 21.333 21.333 21.333 21.333-9.557 21.333-21.333-9.6-21.333-21.333-21.333zM725.333 576c-35.285 0-64-28.715-64-64s28.715-64 64-64 64 28.715 64 64c0 35.285-28.715 64-64 64zM725.333 490.667c-11.733 0-21.333 9.557-21.333 21.333s9.6 21.333 21.333 21.333 21.333-9.557 21.333-21.333-9.6-21.333-21.333-21.333z" />
<glyph unicode="&#xe910;" glyph-name="Chat-Buble3" data-tags="Chat-Buble 3" d="M298.667 640c-35.285 0-64-28.672-64-64 0-35.285 28.715-64 64-64s64 28.715 64 64c0 35.328-28.715 64-64 64zM298.667 554.667c-11.776 0-21.333 9.557-21.333 21.333s9.557 21.333 21.333 21.333 21.333-9.557 21.333-21.333-9.557-21.333-21.333-21.333zM512 640c-35.285 0-64-28.715-64-64s28.715-64 64-64c35.285 0 64 28.715 64 64 0 35.328-28.715 64-64 64zM512 554.667c-11.776 0-21.333 9.557-21.333 21.333s9.557 21.333 21.333 21.333 21.333-9.557 21.333-21.333-9.557-21.333-21.333-21.333zM725.333 640c-35.285 0-64-28.715-64-64s28.715-64 64-64c35.285 0 64 28.715 64 64 0 35.328-28.715 64-64 64zM725.333 554.667c-11.776 0-21.333 9.557-21.333 21.333s9.557 21.333 21.333 21.333 21.333-9.557 21.333-21.333-9.557-21.333-21.333-21.333zM853.333 938.667h-682.667c-82.347 0-149.333-66.987-149.333-149.333v-426.667c0-82.347 66.987-149.333 149.333-149.333h93.483l-112.555-225.109c-4.395-8.832-2.176-19.584 5.419-25.899 3.925-3.328 8.789-4.992 13.653-4.992 4.48 0 9.003 1.408 12.8 4.224l335.659 251.733h334.208c82.347 0 149.333 66.987 149.333 149.333v426.709c0 82.347-66.987 149.333-149.333 149.333zM960 362.752c0-58.795-47.872-106.667-106.667-106.667h-341.333c-4.651 0-9.131-1.493-12.8-4.267l-269.056-201.771 87.595 175.147c3.328 6.571 2.944 14.464-0.939 20.736s-10.752 10.069-18.133 10.069h-128c-58.795 0-106.667 47.872-106.667 106.667v426.667c0 58.795 47.872 106.667 106.667 106.667v0.085h682.667c58.795 0 106.667-47.872 106.667-106.667v-426.667z" />
<glyph unicode="&#xe911;" glyph-name="Chat-Delete1" data-tags="Chat-Delete 1" d="M213.333 597.333c0-35.243 28.715-64 64-64s64 28.757 64 64c0 35.328-28.715 64-64 64s-64-28.672-64-64zM298.667 597.333c0-11.776-9.6-21.333-21.333-21.333s-21.333 9.557-21.333 21.333 9.6 21.333 21.333 21.333c11.733 0 21.333-9.557 21.333-21.333zM490.667 661.333c-35.285 0-64-28.672-64-64 0-35.285 28.715-64 64-64s64 28.715 64 64c0 35.328-28.715 64-64 64zM490.667 576c-11.733 0-21.333 9.557-21.333 21.333s9.6 21.333 21.333 21.333c11.733 0 21.333-9.557 21.333-21.333s-9.6-21.333-21.333-21.333zM640 597.333c0-35.285 28.715-64 64-64s64 28.715 64 64c0 35.328-28.715 64-64 64s-64-28.672-64-64zM725.333 597.333c0-11.776-9.6-21.333-21.333-21.333s-21.333 9.557-21.333 21.333 9.6 21.333 21.333 21.333c11.733 0 21.333-9.557 21.333-21.333zM512 277.333h-21.333c-4.651 0-9.131-1.493-12.8-4.267l-269.056-201.771 87.595 175.147c3.328 6.571 2.987 14.464-0.896 20.736-3.925 6.272-10.795 10.155-18.176 10.155h-128c-58.837 0-106.667 47.829-106.667 106.667v426.667c0 58.795 47.829 106.667 106.667 106.667h682.667c58.837 0 106.667-47.872 106.667-106.667v-341.333c0-11.776 9.557-21.333 21.333-21.333s21.333 9.557 21.333 21.333v341.333c0 82.347-66.987 149.333-149.333 149.333h-682.667c-82.347 0-149.333-66.987-149.333-149.333v-426.667c0-82.347 66.987-149.333 149.333-149.333h93.525l-112.597-225.109c-4.395-8.832-2.176-19.584 5.419-25.899 3.925-3.328 8.789-4.992 13.653-4.992 4.48 0 9.003 1.408 12.8 4.267l335.659 251.733h14.208c11.776 0 21.333 9.557 21.333 21.333s-9.557 21.333-21.333 21.333zM960 405.333h-149.333v21.333c0 11.776-9.557 21.333-21.333 21.333s-21.333-9.557-21.333-21.333v-21.333h-149.333c-35.285 0-64-28.715-64-64v-42.667c0-11.776 9.557-21.333 21.333-21.333h25.003l60.757-323.925c1.835-10.069 10.667-17.408 20.907-17.408h213.333c10.24 0 19.072 7.296 20.949 17.408l60.715 323.925h25.003c11.776 0 21.333 9.557 21.333 21.333v42.667c0 35.328-28.715 64-64 64zM878.293-21.333h-177.92l-56.021 298.667h289.963l-56.021-298.667zM981.333 320h-384v21.333c0 11.776 9.6 21.333 21.333 21.333h341.333c11.733 0 21.333-9.557 21.333-21.333v-21.333zM746.624 21.333c0.939 0 1.792 0.043 2.731 0.171 11.691 1.451 19.968 12.117 18.517 23.808l-21.333 170.667c-1.493 11.733-12.459 20.011-23.851 18.517-11.691-1.451-19.968-12.117-18.517-23.808l21.333-170.667c1.323-10.795 10.539-18.688 21.12-18.688zM829.355 21.547c0.896-0.128 1.792-0.213 2.688-0.213 10.581 0 19.797 7.893 21.163 18.688l21.333 170.667c1.451 11.691-6.869 22.357-18.517 23.808-11.691 1.493-22.4-6.784-23.851-18.517l-21.333-170.667c-1.451-11.648 6.869-22.315 18.517-23.765z" />
<glyph unicode="&#xe912;" glyph-name="Chat-Delete2" data-tags="Chat-Delete 2" d="M682.667 746.667h-149.333v21.333c0 11.776-9.557 21.333-21.333 21.333s-21.333-9.557-21.333-21.333v-21.333h-149.333c-35.285 0-64-28.715-64-64v-42.667c0-11.776 9.557-21.333 21.333-21.333h25.003l60.757-323.925c1.835-10.112 10.667-17.408 20.907-17.408h213.333c10.24 0 19.072 7.296 20.949 17.408l60.715 323.925h25.003c11.776 0 21.333 9.557 21.333 21.333v42.667c0 35.285-28.715 64-64 64zM600.96 320h-177.92l-56.021 298.667h289.963l-56.021-298.667zM704 661.333h-384v21.333c0 11.776 9.6 21.333 21.333 21.333h341.333c11.733 0 21.333-9.557 21.333-21.333v-21.333zM469.291 362.667c0.939 0 1.792 0.043 2.731 0.171 11.691 1.451 19.968 12.117 18.517 23.808l-21.333 170.667c-1.493 11.733-12.501 19.968-23.851 18.517-11.691-1.451-19.968-12.117-18.517-23.808l21.333-170.667c1.323-10.795 10.539-18.688 21.12-18.688zM552.021 362.837c0.896-0.128 1.792-0.171 2.688-0.171 10.581 0 19.797 7.893 21.163 18.688l21.333 170.667c1.451 11.691-6.869 22.357-18.517 23.808-11.477 1.451-22.443-6.784-23.851-18.517l-21.333-170.667c-1.451-11.691 6.869-22.357 18.517-23.808zM512 917.333c-270.549 0-490.667-181.845-490.667-405.333 0-108.715 53.76-213.547 148.011-289.664l-61.824-216.491c-2.603-9.003 0.981-18.603 8.875-23.723 3.541-2.304 7.552-3.456 11.605-3.456 4.864 0 9.728 1.664 13.696 4.907l184.149 153.515c59.477-20.181 122.027-30.421 186.155-30.421 270.549 0 490.667 181.845 490.667 405.333s-220.117 405.333-490.667 405.333zM512 149.333c-63.275 0-124.971 10.752-183.211 31.957-7.125 2.645-15.104 1.195-20.949-3.627l-140.288-116.949 46.763 163.755c2.389 8.448-0.597 17.536-7.637 22.869-92.032 69.589-142.677 163.584-142.677 264.661 0 199.979 200.96 362.667 448 362.667s448-162.688 448-362.667c0-199.979-200.96-362.667-448-362.667z" />
<glyph unicode="&#xe913;" glyph-name="Chat-Delete3" data-tags="Chat-Delete 3" d="M960 405.333h-149.333v21.333c0 11.776-9.557 21.333-21.333 21.333s-21.333-9.557-21.333-21.333v-21.333h-149.333c-35.285 0-64-28.715-64-64v-42.667c0-11.776 9.557-21.333 21.333-21.333h25.003l60.757-323.925c1.835-10.112 10.667-17.408 20.907-17.408h213.333c10.24 0 19.072 7.296 20.949 17.408l60.715 323.925h25.003c11.776 0 21.333 9.557 21.333 21.333v42.667c0 35.285-28.715 64-64 64zM878.293-21.333h-177.92l-56.021 298.667h289.963l-56.021-298.667zM981.333 320h-384v21.333c0 11.776 9.6 21.333 21.333 21.333h341.333c11.733 0 21.333-9.557 21.333-21.333v-21.333zM746.624 21.333c0.939 0 1.792 0.043 2.731 0.171 11.691 1.451 19.968 12.117 18.517 23.808l-21.333 170.667c-1.493 11.733-12.459 19.925-23.851 18.517-11.691-1.451-19.968-12.117-18.517-23.808l21.333-170.667c1.323-10.795 10.539-18.688 21.12-18.688zM829.355 21.504c0.896-0.128 1.792-0.171 2.688-0.171 10.581 0 19.797 7.893 21.163 18.688l21.333 170.667c1.451 11.691-6.869 22.357-18.517 23.808-11.691 1.408-22.4-6.784-23.851-18.517l-21.333-170.667c-1.451-11.691 6.869-22.357 18.517-23.808zM490.667 234.667h-256c-6.357 0-12.331-2.816-16.384-7.68l-175.616-210.731v751.744c0 82.347 66.987 149.333 149.333 149.333h597.333c82.347 0 149.333-66.987 149.333-149.333v-298.667c0-11.776 9.557-21.333 21.333-21.333s21.333 9.557 21.333 21.333v298.667c0 105.856-86.144 192-192 192h-597.333c-105.856 0-192-86.144-192-192v-810.667c0-8.96 5.632-16.981 14.080-20.053 2.389-0.853 4.821-1.28 7.253-1.28 6.229 0 12.245 2.688 16.341 7.68l206.976 248.32h246.016c11.776 0 21.333 9.557 21.333 21.333s-9.557 21.333-21.333 21.333zM213.333 554.667c0-35.285 28.715-64 64-64s64 28.715 64 64-28.715 64-64 64c-35.285 0-64-28.715-64-64zM298.667 554.667c0-11.776-9.6-21.333-21.333-21.333s-21.333 9.557-21.333 21.333 9.6 21.333 21.333 21.333c11.733 0 21.333-9.557 21.333-21.333zM490.667 618.667c-35.285 0-64-28.715-64-64s28.715-64 64-64c35.285 0 64 28.715 64 64s-28.715 64-64 64zM490.667 533.333c-11.733 0-21.333 9.557-21.333 21.333s9.6 21.333 21.333 21.333c11.733 0 21.333-9.557 21.333-21.333s-9.6-21.333-21.333-21.333zM640 554.667c0-35.285 28.715-64 64-64s64 28.715 64 64-28.715 64-64 64c-35.285 0-64-28.715-64-64zM725.333 554.667c0-11.776-9.6-21.333-21.333-21.333s-21.333 9.557-21.333 21.333 9.6 21.333 21.333 21.333c11.733 0 21.333-9.557 21.333-21.333z" />
<glyph unicode="&#xe914;" glyph-name="Chat-Error1" data-tags="Chat-Error 1" d="M789.333 405.333c-129.365 0-234.667-105.259-234.667-234.667s105.301-234.667 234.667-234.667 234.667 105.259 234.667 234.667-105.301 234.667-234.667 234.667zM789.333-21.333c-105.856 0-192 86.144-192 192s86.144 192 192 192 192-86.144 192-192-86.144-192-192-192zM789.333 320c-11.776 0-21.333-9.557-21.333-21.333v-170.667c0-11.776 9.557-21.333 21.333-21.333s21.333 9.557 21.333 21.333v170.667c0 11.776-9.557 21.333-21.333 21.333zM773.973 57.6c-3.84-4.267-5.973-9.387-5.973-14.933s2.091-11.093 6.357-14.933c3.883-4.267 9.429-6.4 14.976-6.4s11.093 2.133 14.933 6.4c4.267 3.84 6.4 9.387 6.4 14.933s-2.091 11.093-6.4 14.933c-7.68 8.107-21.76 8.533-30.293 0zM213.333 597.333c0-35.285 28.715-64 64-64s64 28.715 64 64c0 35.285-28.715 64-64 64s-64-28.715-64-64zM298.667 597.333c0-11.776-9.6-21.333-21.333-21.333s-21.333 9.557-21.333 21.333 9.6 21.333 21.333 21.333 21.333-9.557 21.333-21.333zM490.667 661.333c-35.285 0-64-28.715-64-64s28.715-64 64-64 64 28.715 64 64c0 35.285-28.715 64-64 64zM490.667 576c-11.733 0-21.333 9.557-21.333 21.333s9.6 21.333 21.333 21.333 21.333-9.557 21.333-21.333-9.6-21.333-21.333-21.333zM640 597.333c0-35.285 28.715-64 64-64s64 28.715 64 64c0 35.285-28.715 64-64 64s-64-28.715-64-64zM725.333 597.333c0-11.776-9.6-21.333-21.333-21.333s-21.333 9.557-21.333 21.333 9.6 21.333 21.333 21.333 21.333-9.557 21.333-21.333zM512 277.333h-21.333c-4.651 0-9.131-1.493-12.8-4.267l-269.056-201.728 87.595 175.147c3.328 6.571 2.987 14.464-0.896 20.736-3.925 6.272-10.795 10.112-18.176 10.112h-128c-58.837 0-106.667 47.872-106.667 106.667v426.667c0 58.795 47.829 106.667 106.667 106.667h682.667c58.837 0 106.667-47.872 106.667-106.667v-405.333c0-11.776 9.557-21.333 21.333-21.333s21.333 9.557 21.333 21.333v405.333c0 82.347-66.987 149.333-149.333 149.333h-682.667c-82.347 0-149.333-66.987-149.333-149.333v-426.667c0-82.347 66.987-149.333 149.333-149.333h93.483l-112.555-225.152c-4.395-8.832-2.176-19.584 5.419-25.899 3.925-3.285 8.789-4.949 13.653-4.949 4.48 0 9.003 1.408 12.8 4.267l335.659 251.733h14.208c11.776 0 21.333 9.557 21.333 21.333s-9.557 21.333-21.333 21.333z" />
<glyph unicode="&#xe915;" glyph-name="Chat-Error2" data-tags="Chat-Error 2" d="M512 746.667c-129.365 0-234.667-105.259-234.667-234.667s105.301-234.667 234.667-234.667 234.667 105.259 234.667 234.667-105.301 234.667-234.667 234.667zM512 320c-105.856 0-192 86.144-192 192s86.144 192 192 192 192-86.144 192-192-86.144-192-192-192zM512 661.333c-11.776 0-21.333-9.557-21.333-21.333v-170.667c0-11.776 9.557-21.333 21.333-21.333s21.333 9.557 21.333 21.333v170.667c0 11.776-9.557 21.333-21.333 21.333zM496.64 398.933c-3.84-3.84-5.973-9.387-5.973-14.933s2.091-10.667 6.357-14.933c3.883-4.267 9.429-6.4 14.976-6.4s11.093 2.133 15.317 6.4c3.883 3.84 6.016 9.387 6.016 14.933s-2.091 11.093-6.4 15.36c-8.064 7.68-21.333 8.107-30.293-0.427zM512 917.333c-270.549 0-490.667-181.845-490.667-405.333 0-108.715 53.76-213.504 148.011-289.664l-61.824-216.491c-2.603-9.003 0.981-18.603 8.875-23.723 3.541-2.304 7.552-3.456 11.605-3.456 4.864 0 9.728 1.664 13.696 4.907l184.149 153.515c59.477-20.181 122.027-30.421 186.155-30.421 270.549 0 490.667 181.845 490.667 405.333s-220.117 405.333-490.667 405.333zM512 149.333c-63.275 0-124.971 10.752-183.211 31.957-7.125 2.645-15.104 1.195-20.949-3.627l-140.288-116.949 46.763 163.755c2.389 8.448-0.597 17.536-7.637 22.869-92.032 69.589-142.677 163.584-142.677 264.661 0 199.979 200.96 362.667 448 362.667s448-162.688 448-362.667-200.96-362.667-448-362.667z" />
<glyph unicode="&#xe916;" glyph-name="Chat-Error3" data-tags="Chat-Error 3" d="M789.333 405.333c-129.365 0-234.667-105.259-234.667-234.667s105.301-234.667 234.667-234.667 234.667 105.259 234.667 234.667-105.301 234.667-234.667 234.667zM789.333-21.333c-105.856 0-192 86.144-192 192s86.144 192 192 192 192-86.144 192-192-86.144-192-192-192zM789.333 320c-11.776 0-21.333-9.557-21.333-21.333v-170.667c0-11.776 9.557-21.333 21.333-21.333s21.333 9.557 21.333 21.333v170.667c0 11.776-9.557 21.333-21.333 21.333zM773.973 57.6c-3.84-4.267-5.973-9.387-5.973-14.933s2.133-10.667 6.357-15.36c4.309-3.84 9.429-5.973 14.976-5.973s11.093 2.133 15.317 6.4c3.883 3.84 6.016 9.387 6.016 14.933s-2.133 11.093-6.4 15.36c-8.064 7.68-21.333 8.107-30.293-0.427zM490.667 234.667h-256c-6.357 0-12.331-2.816-16.384-7.68l-175.616-210.731v751.744c0 82.347 66.987 149.333 149.333 149.333h597.333c82.347 0 149.333-66.987 149.333-149.333v-341.333c0-11.776 9.557-21.333 21.333-21.333s21.333 9.557 21.333 21.333v341.333c0 105.856-86.144 192-192 192h-597.333c-105.856 0-192-86.144-192-192v-810.667c0-8.96 5.632-16.981 14.080-20.053 2.389-0.853 4.821-1.28 7.253-1.28 6.229 0 12.245 2.688 16.341 7.68l206.976 248.32h246.016c11.776 0 21.333 9.557 21.333 21.333s-9.557 21.333-21.333 21.333zM213.333 554.667c0-35.285 28.715-64 64-64s64 28.715 64 64-28.715 64-64 64-64-28.715-64-64zM298.667 554.667c0-11.776-9.6-21.333-21.333-21.333s-21.333 9.557-21.333 21.333 9.6 21.333 21.333 21.333 21.333-9.557 21.333-21.333zM490.667 618.667c-35.285 0-64-28.715-64-64s28.715-64 64-64 64 28.715 64 64-28.715 64-64 64zM490.667 533.333c-11.733 0-21.333 9.557-21.333 21.333s9.6 21.333 21.333 21.333 21.333-9.557 21.333-21.333-9.6-21.333-21.333-21.333zM640 554.667c0-35.285 28.715-64 64-64s64 28.715 64 64-28.715 64-64 64-64-28.715-64-64zM725.333 554.667c0-11.776-9.6-21.333-21.333-21.333s-21.333 9.557-21.333 21.333 9.6 21.333 21.333 21.333 21.333-9.557 21.333-21.333z" />
<glyph unicode="&#xe917;" glyph-name="Chat-Help1" data-tags="Chat-Help 1" d="M789.333 405.333c-129.408 0-234.667-105.259-234.667-234.667s105.259-234.667 234.667-234.667c129.408 0 234.667 105.259 234.667 234.667s-105.259 234.667-234.667 234.667zM789.333-21.333c-105.856 0-192 86.144-192 192s86.144 192 192 192c105.856 0 192-86.144 192-192s-86.144-192-192-192zM774.4 57.643c-4.267-3.883-6.4-9.429-6.4-14.976 0-5.973 2.133-11.093 6.4-15.36 4.267-3.84 9.387-5.973 14.933-5.973s11.093 2.133 15.36 6.4c3.84 4.267 5.973 9.387 5.973 14.933s-2.133 11.093-6.4 15.36c-8.107 7.723-21.76 7.723-29.867-0.384zM789.291 320c-56.917 0-102.741-34.176-106.496-79.445-0.981-11.733 7.723-22.059 19.456-23.040 11.861-1.323 22.059 7.723 23.040 19.456 1.835 22.272 30.592 40.363 64 40.363 34.688 0 64.043-19.541 64.043-42.667 0-20.779-20.224-34.219-63.616-42.24l-4.651-0.853c-9.899-2.048-17.024-10.752-17.024-20.864l-0.043-42.709c0-11.733 9.515-21.333 21.333-21.333 11.776 0 21.333 9.515 21.333 21.333l0.043 25.259c56.619 13.312 85.291 40.661 85.291 81.408 0 47.104-47.872 85.333-106.709 85.333zM213.333 597.333c0-35.243 28.715-64 64-64s64 28.757 64 64c0 35.328-28.715 64-64 64s-64-28.672-64-64zM298.667 597.333c0-11.776-9.557-21.333-21.333-21.333s-21.333 9.557-21.333 21.333 9.557 21.333 21.333 21.333 21.333-9.557 21.333-21.333zM490.667 661.333c-35.285 0-64-28.672-64-64 0-35.285 28.715-64 64-64s64 28.715 64 64c0 35.328-28.715 64-64 64zM490.667 576c-11.776 0-21.333 9.557-21.333 21.333s9.557 21.333 21.333 21.333 21.333-9.557 21.333-21.333-9.557-21.333-21.333-21.333zM640 597.333c0-35.285 28.715-64 64-64s64 28.715 64 64c0 35.328-28.715 64-64 64s-64-28.672-64-64zM725.333 597.333c0-11.776-9.557-21.333-21.333-21.333s-21.333 9.557-21.333 21.333 9.557 21.333 21.333 21.333 21.333-9.557 21.333-21.333zM512 277.419h-21.333c-4.651 0-9.131-1.493-12.8-4.267l-269.056-201.771 87.595 175.147c3.328 6.571 2.944 14.464-0.939 20.736s-10.752 10.069-18.133 10.069h-128c-58.795 0-106.667 47.872-106.667 106.667v426.667c0 58.795 47.872 106.667 106.667 106.667h682.667c58.795 0 106.667-47.872 106.667-106.667v-405.333c0-11.776 9.557-21.376 21.333-21.376s21.333 9.6 21.333 21.376v405.333c0 82.347-66.987 149.333-149.333 149.333h-682.667c-82.347 0-149.333-66.987-149.333-149.333v-426.667c0-82.347 66.987-149.333 149.333-149.333h93.483l-112.555-225.109c-4.395-8.832-2.176-19.584 5.419-25.899 3.925-3.328 8.789-4.992 13.653-4.992 4.48 0 9.003 1.408 12.8 4.309l335.659 251.733h14.208c11.776 0 21.333 9.557 21.333 21.333s-9.557 21.376-21.333 21.376z" />
<glyph unicode="&#xe918;" glyph-name="Chat-Help2" data-tags="Chat-Help 2" d="M512 746.667c-129.408 0-234.667-105.259-234.667-234.667s105.259-234.667 234.667-234.667c129.408 0 234.667 105.259 234.667 234.667s-105.259 234.667-234.667 234.667zM512 320c-105.856 0-192 86.144-192 192s86.144 192 192 192c105.856 0 192-86.144 192-192s-86.144-192-192-192zM497.067 399.36c-4.267-4.267-6.4-9.813-6.4-15.36s2.133-11.093 6.4-14.933c3.84-4.267 9.387-6.4 14.933-6.4s11.093 2.133 14.933 6.4c4.267 3.84 6.4 9.387 6.4 14.933s-2.133 11.093-6.4 14.933c-7.68 8.107-21.76 8.107-29.867 0.427zM512 661.333c-56.917 0-102.741-34.133-106.539-79.445-0.981-11.733 7.723-22.059 19.456-23.040 11.776-1.408 22.059 7.723 23.040 19.456 1.835 22.272 30.592 40.363 64 40.363 34.688 0 64.043-19.541 64.043-42.667 0-20.779-20.224-34.219-63.616-42.24l-4.651-0.896c-9.899-2.048-17.024-10.752-17.024-20.864l-0.043-42.667c0-11.733 9.515-21.333 21.333-21.333 11.776 0 21.333 9.515 21.333 21.333l0.085 25.259c56.619 13.312 85.291 40.661 85.291 81.408 0 47.061-47.872 85.333-106.709 85.333zM512 917.333c-270.549 0-490.667-181.845-490.667-405.333 0-108.715 53.76-213.504 148.011-289.664l-61.867-216.491c-2.56-9.003 1.024-18.603 8.875-23.723 3.584-2.304 7.595-3.456 11.648-3.456 4.864 0 9.728 1.664 13.653 4.907l184.192 153.515c59.52-20.181 122.069-30.421 186.155-30.421 270.549 0 490.667 181.845 490.667 405.333s-220.117 405.333-490.667 405.333zM512 149.333c-63.275 0-124.928 10.752-183.211 31.957-7.125 2.645-15.104 1.195-20.949-3.627l-140.331-116.949 46.805 163.755c2.432 8.448-0.597 17.536-7.637 22.869-92.032 69.589-142.677 163.584-142.677 264.661 0 199.979 200.96 362.667 448 362.667s448-162.688 448-362.667c0-199.979-200.96-362.667-448-362.667z" />
<glyph unicode="&#xe919;" glyph-name="Chat-Help3" data-tags="Chat-Help 3" d="M789.333 405.333c-129.408 0-234.667-105.259-234.667-234.667s105.259-234.667 234.667-234.667c129.408 0 234.667 105.259 234.667 234.667s-105.259 234.667-234.667 234.667zM789.333-21.333c-105.856 0-192 86.144-192 192s86.144 192 192 192c105.856 0 192-86.144 192-192s-86.144-192-192-192zM774.4 57.6c-4.267-3.84-6.4-8.96-6.4-14.933s2.56-11.52 6.4-14.933c3.84-4.267 9.387-6.4 14.933-6.4s11.093 2.133 14.933 6.4c4.267 3.84 6.4 9.387 6.4 14.933s-2.133 11.093-6.4 14.933c-7.68 8.107-22.187 8.107-29.867 0zM789.291 320c-56.917 0-102.741-34.176-106.496-79.445-0.981-11.733 7.723-22.059 19.456-23.040 11.861-1.451 22.059 7.723 23.040 19.456 1.835 22.272 30.592 40.363 64 40.363 34.688 0 64.043-19.541 64.043-42.667 0-20.779-20.224-34.219-63.616-42.24l-4.651-0.896c-9.899-2.048-17.024-10.752-17.024-20.864l-0.043-42.667c0-11.733 9.515-21.333 21.333-21.333 11.776 0 21.333 9.515 21.333 21.333l0.043 25.259c56.619 13.312 85.291 40.661 85.291 81.408 0 47.061-47.872 85.333-106.709 85.333zM490.667 234.667h-256c-6.315 0-12.331-2.816-16.384-7.68l-175.616-210.731v751.744c0 82.347 66.987 149.333 149.333 149.333h597.333c82.347 0 149.333-66.987 149.333-149.333v-341.333c0-11.776 9.557-21.333 21.333-21.333s21.333 9.557 21.333 21.333v341.333c0 105.856-86.144 192-192 192h-597.333c-105.856 0-192-86.144-192-192v-810.667c0-8.96 5.632-16.981 14.080-20.053 2.347-0.853 4.821-1.28 7.253-1.28 6.229 0 12.245 2.688 16.384 7.68l206.933 248.32h246.016c11.776 0 21.333 9.557 21.333 21.333s-9.557 21.333-21.333 21.333zM213.333 554.667c0-35.285 28.715-64 64-64s64 28.715 64 64-28.715 64-64 64c-35.285 0-64-28.715-64-64zM298.667 554.667c0-11.776-9.557-21.333-21.333-21.333s-21.333 9.557-21.333 21.333 9.557 21.333 21.333 21.333 21.333-9.557 21.333-21.333zM490.667 618.667c-35.285 0-64-28.715-64-64s28.715-64 64-64c35.285 0 64 28.715 64 64s-28.715 64-64 64zM490.667 533.333c-11.776 0-21.333 9.557-21.333 21.333s9.557 21.333 21.333 21.333 21.333-9.557 21.333-21.333-9.557-21.333-21.333-21.333zM640 554.667c0-35.285 28.715-64 64-64s64 28.715 64 64-28.715 64-64 64c-35.285 0-64-28.715-64-64zM725.333 554.667c0-11.776-9.557-21.333-21.333-21.333s-21.333 9.557-21.333 21.333 9.557 21.333 21.333 21.333 21.333-9.557 21.333-21.333z" />
<glyph unicode="&#xe91a;" glyph-name="Chat-Remouve1" data-tags="Chat-Remouve 1" d="M213.333 597.333c0-35.243 28.715-64 64-64s64 28.757 64 64c0 35.328-28.715 64-64 64s-64-28.672-64-64zM298.667 597.333c0-11.776-9.6-21.333-21.333-21.333s-21.333 9.557-21.333 21.333 9.6 21.333 21.333 21.333 21.333-9.557 21.333-21.333zM490.667 661.333c-35.285 0-64-28.672-64-64 0-35.285 28.715-64 64-64s64 28.715 64 64c0 35.328-28.715 64-64 64zM490.667 576c-11.733 0-21.333 9.557-21.333 21.333s9.6 21.333 21.333 21.333c11.733 0 21.333-9.557 21.333-21.333s-9.6-21.333-21.333-21.333zM640 597.333c0-35.285 28.715-64 64-64s64 28.715 64 64c0 35.328-28.715 64-64 64s-64-28.672-64-64zM725.333 597.333c0-11.776-9.6-21.333-21.333-21.333s-21.333 9.557-21.333 21.333 9.6 21.333 21.333 21.333c11.733 0 21.333-9.557 21.333-21.333zM512 277.333h-21.333c-4.651 0-9.131-1.493-12.8-4.267l-269.056-201.771 87.595 175.147c3.328 6.571 2.987 14.464-0.896 20.736-3.925 6.272-10.795 10.155-18.176 10.155h-128c-58.837 0-106.667 47.829-106.667 106.667v426.667c0 58.795 47.829 106.667 106.667 106.667h682.667c58.837 0 106.667-47.872 106.667-106.667v-405.333c0-11.776 9.557-21.333 21.333-21.333s21.333 9.557 21.333 21.333v405.333c0 82.347-66.987 149.333-149.333 149.333h-682.667c-82.347 0-149.333-66.987-149.333-149.333v-426.667c0-82.347 66.987-149.333 149.333-149.333h93.525l-112.597-225.109c-4.395-8.832-2.176-19.584 5.419-25.899 3.925-3.328 8.789-4.992 13.653-4.992 4.48 0 9.003 1.408 12.8 4.267l335.659 251.733h14.208c11.776 0 21.333 9.557 21.333 21.333s-9.557 21.333-21.333 21.333zM789.333 405.333c-129.365 0-234.667-105.259-234.667-234.667s105.301-234.667 234.667-234.667 234.667 105.259 234.667 234.667-105.301 234.667-234.667 234.667zM789.333-21.333c-105.856 0-192 86.144-192 192s86.144 192 192 192 192-86.144 192-192-86.144-192-192-192zM874.667 192h-170.667c-11.776 0-21.333-9.557-21.333-21.333s9.557-21.333 21.333-21.333h170.667c11.776 0 21.333 9.557 21.333 21.333s-9.557 21.333-21.333 21.333z" />
<glyph unicode="&#xe91b;" glyph-name="Chat-Remouve2" data-tags="Chat-Remouve 2" d="M512 746.667c-129.365 0-234.667-105.259-234.667-234.667s105.301-234.667 234.667-234.667 234.667 105.259 234.667 234.667-105.301 234.667-234.667 234.667zM512 320c-105.856 0-192 86.144-192 192s86.144 192 192 192 192-86.144 192-192-86.144-192-192-192zM597.333 533.333h-170.667c-11.776 0-21.333-9.557-21.333-21.333s9.557-21.333 21.333-21.333h170.667c11.776 0 21.333 9.557 21.333 21.333s-9.557 21.333-21.333 21.333zM512 917.333c-270.549 0-490.667-181.845-490.667-405.333 0-108.715 53.76-213.547 148.011-289.664l-61.824-216.491c-2.603-9.003 0.981-18.603 8.875-23.723 3.541-2.304 7.552-3.456 11.605-3.456 4.864 0 9.728 1.664 13.696 4.907l184.149 153.515c59.477-20.181 122.027-30.421 186.155-30.421 270.549 0 490.667 181.845 490.667 405.333s-220.117 405.333-490.667 405.333zM512 149.333c-63.275 0-124.971 10.752-183.211 31.957-7.125 2.645-15.104 1.195-20.949-3.627l-140.288-116.949 46.763 163.755c2.389 8.448-0.597 17.536-7.637 22.869-92.032 69.589-142.677 163.584-142.677 264.661 0 199.979 200.96 362.667 448 362.667s448-162.688 448-362.667c0-199.979-200.96-362.667-448-362.667z" />
<glyph unicode="&#xe91c;" glyph-name="Chat-Remouve3" data-tags="Chat-Remouve 3" d="M789.333 405.333c-129.365 0-234.667-105.259-234.667-234.667s105.301-234.667 234.667-234.667 234.667 105.259 234.667 234.667-105.301 234.667-234.667 234.667zM789.333-21.333c-105.856 0-192 86.144-192 192s86.144 192 192 192 192-86.144 192-192-86.144-192-192-192zM874.667 192h-170.667c-11.776 0-21.333-9.557-21.333-21.333s9.557-21.333 21.333-21.333h170.667c11.776 0 21.333 9.557 21.333 21.333s-9.557 21.333-21.333 21.333zM490.667 234.667h-256c-6.357 0-12.331-2.816-16.384-7.68l-175.616-210.731v751.744c0 82.347 66.987 149.333 149.333 149.333h597.333c82.347 0 149.333-66.987 149.333-149.333v-341.333c0-11.776 9.557-21.333 21.333-21.333s21.333 9.557 21.333 21.333v341.333c0 105.856-86.144 192-192 192h-597.333c-105.856 0-192-86.144-192-192v-810.667c0-8.96 5.632-16.981 14.080-20.053 2.389-0.853 4.821-1.28 7.253-1.28 6.229 0 12.245 2.688 16.341 7.68l206.976 248.32h246.016c11.776 0 21.333 9.557 21.333 21.333s-9.557 21.333-21.333 21.333zM213.333 554.667c0-35.285 28.715-64 64-64s64 28.715 64 64-28.715 64-64 64-64-28.715-64-64zM298.667 554.667c0-11.776-9.6-21.333-21.333-21.333s-21.333 9.557-21.333 21.333 9.6 21.333 21.333 21.333 21.333-9.557 21.333-21.333zM490.667 618.667c-35.285 0-64-28.715-64-64s28.715-64 64-64c35.285 0 64 28.715 64 64s-28.715 64-64 64zM490.667 533.333c-11.733 0-21.333 9.557-21.333 21.333s9.6 21.333 21.333 21.333c11.733 0 21.333-9.557 21.333-21.333s-9.6-21.333-21.333-21.333zM640 554.667c0-35.285 28.715-64 64-64s64 28.715 64 64-28.715 64-64 64c-35.285 0-64-28.715-64-64zM725.333 554.667c0-11.776-9.6-21.333-21.333-21.333s-21.333 9.557-21.333 21.333 9.6 21.333 21.333 21.333c11.733 0 21.333-9.557 21.333-21.333z" />
<glyph unicode="&#xe91d;" glyph-name="Chat-Search1" data-tags="Chat-Search 1" d="M1017.728-27.563l-115.499 115.499c22.528 28.885 36.437 64.725 36.437 104.064 0 94.123-76.544 170.667-170.667 170.667s-170.667-76.544-170.667-170.667 76.544-170.667 170.667-170.667c39.339 0 75.179 13.909 104.064 36.395l115.499-115.499c4.181-4.139 9.643-6.229 15.104-6.229s10.923 2.091 15.061 6.229c8.32 8.32 8.32 21.888 0 30.208zM640 192c0 70.571 57.429 128 128 128s128-57.429 128-128-57.429-128-128-128-128 57.429-128 128zM213.333 597.333c0-35.243 28.715-64 64-64s64 28.757 64 64c0 35.328-28.715 64-64 64s-64-28.672-64-64zM298.667 597.333c0-11.776-9.557-21.333-21.333-21.333s-21.333 9.557-21.333 21.333 9.557 21.333 21.333 21.333 21.333-9.557 21.333-21.333zM490.667 661.333c-35.285 0-64-28.672-64-64 0-35.285 28.715-64 64-64s64 28.715 64 64c0 35.328-28.715 64-64 64zM490.667 576c-11.776 0-21.333 9.557-21.333 21.333s9.557 21.333 21.333 21.333 21.333-9.557 21.333-21.333-9.557-21.333-21.333-21.333zM640 597.333c0-35.285 28.715-64 64-64s64 28.715 64 64c0 35.328-28.715 64-64 64s-64-28.672-64-64zM725.333 597.333c0-11.776-9.557-21.333-21.333-21.333s-21.333 9.557-21.333 21.333 9.557 21.333 21.333 21.333 21.333-9.557 21.333-21.333zM533.333 277.333h-42.667c-4.651 0-9.131-1.493-12.8-4.267l-269.056-201.771 87.595 175.147c3.328 6.571 2.944 14.464-0.939 20.736s-10.752 10.155-18.133 10.155h-128c-58.795 0-106.667 47.829-106.667 106.667v426.667c0 58.795 47.872 106.667 106.667 106.667h682.667c58.795 0 106.667-47.872 106.667-106.667v-469.333c0-11.776 9.557-21.333 21.333-21.333s21.333 9.557 21.333 21.333v469.333c0 82.347-66.987 149.333-149.333 149.333h-682.667c-82.347 0-149.333-66.987-149.333-149.333v-426.667c0-82.347 66.987-149.333 149.333-149.333h93.483l-112.555-225.109c-4.395-8.832-2.176-19.584 5.419-25.899 3.925-3.328 8.789-4.992 13.653-4.992 4.48 0 9.003 1.408 12.8 4.267l335.659 251.733h35.541c11.776 0 21.333 9.557 21.333 21.333s-9.557 21.333-21.333 21.333z" />
<glyph unicode="&#xe91e;" glyph-name="Chat-Search3" data-tags="Chat-Search 3" d="M1017.728-27.605l-115.499 115.499c22.528 28.885 36.437 64.725 36.437 104.107 0 94.123-76.544 170.667-170.667 170.667s-170.667-76.544-170.667-170.667 76.544-170.667 170.667-170.667c39.339 0 75.179 13.909 104.064 36.395l115.499-115.499c4.181-4.139 9.643-6.229 15.104-6.229s10.923 2.091 15.061 6.229c8.32 8.32 8.32 21.845 0 30.165zM640 192c0 70.571 57.429 128 128 128s128-57.429 128-128-57.429-128-128-128-128 57.429-128 128zM533.333 234.667h-298.667c-6.315 0-12.331-2.816-16.384-7.68l-175.616-210.731v751.744c0 82.347 66.987 149.333 149.333 149.333h597.333c82.347 0 149.333-66.987 149.333-149.333v-426.667c0-11.776 9.557-21.333 21.333-21.333s21.333 9.557 21.333 21.333v426.667c0 105.856-86.144 192-192 192h-597.333c-105.856 0-192-86.144-192-192v-810.667c0-8.96 5.632-16.981 14.080-20.053 2.347-0.853 4.821-1.28 7.253-1.28 6.229 0 12.245 2.688 16.384 7.68l206.933 248.32h288.683c11.776 0 21.333 9.557 21.333 21.333s-9.557 21.333-21.333 21.333zM213.333 554.667c0-35.285 28.715-64 64-64s64 28.715 64 64-28.715 64-64 64c-35.285 0-64-28.715-64-64zM298.667 554.667c0-11.776-9.557-21.333-21.333-21.333s-21.333 9.557-21.333 21.333 9.557 21.333 21.333 21.333 21.333-9.557 21.333-21.333zM490.667 618.667c-35.285 0-64-28.715-64-64s28.715-64 64-64c35.285 0 64 28.715 64 64s-28.715 64-64 64zM490.667 533.333c-11.776 0-21.333 9.557-21.333 21.333s9.557 21.333 21.333 21.333 21.333-9.557 21.333-21.333-9.557-21.333-21.333-21.333zM640 554.667c0-35.285 28.715-64 64-64s64 28.715 64 64-28.715 64-64 64c-35.285 0-64-28.715-64-64zM725.333 554.667c0-11.776-9.557-21.333-21.333-21.333s-21.333 9.557-21.333 21.333 9.557 21.333 21.333 21.333 21.333-9.557 21.333-21.333z" />
<glyph unicode="&#xe91f;" glyph-name="Chat-Settings1" data-tags="Chat-Settings 1" d="M1010.773 243.499c-1.92 5.589-6.059 10.155-11.477 12.587s-11.605 2.475-17.067 0.171c-10.027-4.309-21.333-0.853-26.624 8.277-5.248 9.131-2.645 20.565 6.187 27.221 4.779 3.584 7.808 8.96 8.405 14.891 0.597 5.888-1.28 11.819-5.205 16.256-34.816 39.552-79.659 65.749-129.664 75.691-5.888 1.28-12.032-0.171-16.853-3.755-4.864-3.541-7.936-9.003-8.576-14.976-1.109-11.051-9.984-19.328-20.565-19.328s-19.456 8.32-20.565 19.328c-0.64 5.973-3.755 11.435-8.576 14.976-4.821 3.584-11.008 4.992-16.853 3.755-50.005-9.899-94.848-36.096-129.664-75.691-3.925-4.48-5.803-10.368-5.205-16.256 0.597-5.931 3.669-11.349 8.405-14.891 8.875-6.656 11.477-18.091 6.187-27.221s-16.512-12.629-26.624-8.277c-5.504 2.347-11.691 2.304-17.067-0.171-5.419-2.389-9.557-6.955-11.477-12.587-8.917-26.283-13.269-50.816-13.269-74.923s4.352-48.64 13.269-74.923c1.92-5.589 6.059-10.155 11.477-12.587s11.605-2.475 17.067-0.171c10.155 4.267 21.376 0.811 26.624-8.277 5.248-9.131 2.645-20.565-6.187-27.221-4.779-3.584-7.808-8.96-8.405-14.891-0.597-5.888 1.28-11.819 5.205-16.256 34.816-39.552 79.659-65.749 129.664-75.691 5.845-1.195 11.989 0.213 16.853 3.755s7.936 9.003 8.576 14.976c1.109 11.051 9.984 19.328 20.565 19.328s19.456-8.32 20.565-19.328c0.64-5.973 3.755-11.435 8.576-14.976 3.712-2.731 8.149-4.181 12.672-4.181 1.408 0 2.773 0.128 4.181 0.427 50.005 9.899 94.848 36.096 129.664 75.691 3.925 4.48 5.803 10.368 5.205 16.256-0.597 5.931-3.669 11.349-8.405 14.891-8.875 6.656-11.477 18.091-6.187 27.221 5.291 9.088 16.555 12.587 26.624 8.277 5.461-2.304 11.691-2.261 17.067 0.171 5.419 2.389 9.557 6.955 11.477 12.587 8.875 26.283 13.227 50.816 13.227 74.923s-4.352 48.64-13.227 74.923zM975.659 125.227c-23.723 1.195-45.099-10.795-57.003-31.36-11.861-20.523-10.709-45.483 1.323-64.939-21.632-20.48-46.976-35.371-74.581-43.904-10.667 20.523-31.872 34.219-56.064 34.219s-45.397-13.696-56.064-34.219c-27.648 8.491-52.949 23.424-74.581 43.904 12.032 19.413 13.184 44.373 1.323 64.939-11.904 20.608-33.92 32.512-57.003 31.36-3.797 15.061-5.675 29.355-5.675 43.307s1.877 28.245 5.675 43.307c22.997-0.299 45.099 10.795 57.003 31.36 11.861 20.523 10.709 45.483-1.323 64.939 21.632 20.48 46.976 35.371 74.581 43.904 10.667-20.523 31.872-34.219 56.064-34.219s45.397 13.696 56.064 34.219c27.648-8.491 52.949-23.424 74.581-43.904-12.032-19.413-13.184-44.373-1.323-64.939 11.861-20.608 33.28-31.701 57.003-31.36 3.797-15.061 5.675-29.355 5.675-43.307s-1.877-28.245-5.675-43.307zM789.333 275.243c-58.795 0-106.667-47.872-106.667-106.667s47.872-106.667 106.667-106.667 106.667 47.872 106.667 106.667-47.872 106.667-106.667 106.667zM789.333 104.576c-35.285 0-64 28.715-64 64s28.715 64 64 64c35.285 0 64-28.715 64-64s-28.715-64-64-64zM213.333 595.243c0-35.285 28.715-64 64-64s64 28.715 64 64c0 35.285-28.715 64-64 64s-64-28.715-64-64zM298.667 595.243c0-11.776-9.557-21.333-21.333-21.333s-21.333 9.557-21.333 21.333 9.557 21.333 21.333 21.333 21.333-9.557 21.333-21.333zM490.667 659.243c-35.285 0-64-28.715-64-64s28.715-64 64-64c35.285 0 64 28.715 64 64s-28.715 64-64 64zM490.667 573.909c-11.776 0-21.333 9.557-21.333 21.333s9.557 21.333 21.333 21.333 21.333-9.557 21.333-21.333-9.557-21.333-21.333-21.333zM640 595.243c0-35.285 28.715-64 64-64s64 28.715 64 64c0 35.285-28.715 64-64 64s-64-28.715-64-64zM725.333 595.243c0-11.776-9.557-21.333-21.333-21.333s-21.333 9.557-21.333 21.333 9.557 21.333 21.333 21.333 21.333-9.557 21.333-21.333zM512 275.243h-21.333c-4.651 0-9.131-1.493-12.8-4.267l-269.056-201.771 87.595 175.147c3.328 6.571 2.944 14.464-0.939 20.736-3.925 6.272-10.752 10.112-18.133 10.112h-128c-58.795 0-106.667 47.872-106.667 106.667v426.667c0 58.795 47.872 106.667 106.667 106.667h682.667c58.795 0 106.667-47.872 106.667-106.667v-405.333c0-11.776 9.557-21.333 21.333-21.333s21.333 9.557 21.333 21.333v405.333c0 82.347-66.987 149.333-149.333 149.333h-682.667c-82.347 0-149.333-66.987-149.333-149.333v-426.667c0-82.347 66.987-149.333 149.333-149.333h93.44l-112.555-225.109c-4.395-8.832-2.176-19.584 5.419-25.899 3.925-3.285 8.789-4.949 13.653-4.949 4.48 0 9.003 1.408 12.8 4.267l335.659 251.733h14.251c11.776 0 21.333 9.557 21.333 21.333s-9.557 21.333-21.333 21.333z" />
<glyph unicode="&#xe920;" glyph-name="Chat-Settings2" data-tags="Chat-Settings 2" d="M721.963 599.509c-5.419 2.432-11.605 2.475-17.067 0.171-10.112-4.352-21.333-0.853-26.624 8.277-5.248 9.131-2.645 20.565 6.187 27.221 4.779 3.584 7.808 8.96 8.405 14.891 0.597 5.888-1.28 11.819-5.205 16.256-34.816 39.552-79.659 65.749-129.664 75.691-5.888 1.28-12.032-0.171-16.853-3.755-4.864-3.541-7.936-9.003-8.576-14.976-1.109-11.051-9.984-19.328-20.565-19.328s-19.456 8.32-20.565 19.328c-0.64 5.973-3.755 11.435-8.576 14.976-4.821 3.584-11.008 5.035-16.853 3.755-50.005-9.899-94.848-36.096-129.664-75.691-3.925-4.48-5.803-10.368-5.205-16.256 0.597-5.931 3.669-11.349 8.405-14.891 8.875-6.656 11.477-18.091 6.187-27.221-5.291-9.088-16.512-12.629-26.624-8.277-5.504 2.347-11.691 2.304-17.067-0.171-5.419-2.389-9.557-6.955-11.477-12.587-8.917-26.283-13.269-50.816-13.269-74.923s4.352-48.64 13.269-74.923c1.92-5.589 6.059-10.155 11.477-12.587s11.605-2.475 17.067-0.171c10.112 4.309 21.376 0.811 26.624-8.277 5.248-9.131 2.645-20.565-6.187-27.221-4.779-3.584-7.808-8.96-8.405-14.891-0.597-5.888 1.28-11.819 5.205-16.256 34.816-39.552 79.659-65.749 129.664-75.691 5.845-1.195 11.989 0.213 16.853 3.755s7.936 9.003 8.576 14.976c1.109 11.051 9.984 19.328 20.565 19.328s19.456-8.32 20.565-19.328c0.64-5.973 3.755-11.435 8.576-14.976 3.712-2.731 8.149-4.181 12.672-4.181 1.408 0 2.773 0.128 4.181 0.427 50.005 9.899 94.848 36.096 129.664 75.691 3.925 4.48 5.803 10.368 5.205 16.256-0.597 5.931-3.669 11.349-8.405 14.891-8.875 6.656-11.477 18.091-6.187 27.221s16.512 12.629 26.624 8.277c5.461-2.304 11.648-2.261 17.067 0.171 5.419 2.389 9.557 6.955 11.477 12.587 8.917 26.283 13.269 50.816 13.269 74.923s-4.352 48.64-13.269 74.923c-1.92 5.589-6.059 10.155-11.477 12.587zM698.325 468.651c-23.979 0.896-45.099-10.752-57.003-31.36-11.861-20.523-10.709-45.483 1.323-64.939-21.632-20.48-46.976-35.371-74.581-43.904-10.667 20.523-31.872 34.219-56.064 34.219s-45.397-13.696-56.064-34.219c-27.648 8.491-52.949 23.424-74.581 43.904 12.032 19.413 13.184 44.373 1.323 64.939-11.861 20.608-33.493 32.256-57.003 31.36-3.797 15.061-5.675 29.355-5.675 43.307s1.877 28.245 5.675 43.307c23.467-0.597 45.099 10.795 57.003 31.36 11.861 20.523 10.709 45.483-1.323 64.939 21.632 20.48 46.976 35.371 74.581 43.904 10.667-20.523 31.872-34.219 56.064-34.219s45.397 13.696 56.064 34.219c27.648-8.491 52.949-23.424 74.581-43.904-12.032-19.413-13.184-44.373-1.323-64.939s33.024-32 57.003-31.36c3.797-15.061 5.675-29.355 5.675-43.307s-1.877-28.245-5.675-43.307zM512 618.667c-58.795 0-106.667-47.872-106.667-106.667s47.872-106.667 106.667-106.667 106.667 47.872 106.667 106.667-47.872 106.667-106.667 106.667zM512 448c-35.285 0-64 28.715-64 64s28.715 64 64 64c35.285 0 64-28.715 64-64s-28.715-64-64-64zM512 917.333c-270.549 0-490.667-181.845-490.667-405.333 0-108.715 53.76-213.547 148.011-289.664l-61.867-216.491c-2.56-9.003 1.024-18.603 8.875-23.723 3.584-2.304 7.595-3.456 11.648-3.456 4.864 0 9.728 1.664 13.653 4.907l184.192 153.515c59.52-20.181 122.069-30.421 186.155-30.421 270.549 0 490.667 181.845 490.667 405.333s-220.117 405.333-490.667 405.333zM512 149.333c-63.275 0-124.928 10.752-183.211 31.957-7.125 2.645-15.104 1.195-20.949-3.627l-140.331-116.949 46.805 163.755c2.432 8.448-0.597 17.536-7.637 22.869-91.989 69.589-142.677 163.584-142.677 264.661 0 199.979 200.96 362.667 448 362.667s448-162.688 448-362.667c0-199.979-200.96-362.667-448-362.667z" />
<glyph unicode="&#xe921;" glyph-name="Chat-settings3" data-tags="Chat-settings 3" d="M1010.773 245.547c-1.92 5.589-6.059 10.155-11.477 12.587-5.419 2.389-11.605 2.475-17.067 0.171-10.027-4.309-21.333-0.853-26.624 8.277-5.248 9.131-2.645 20.565 6.187 27.221 4.779 3.584 7.808 8.96 8.405 14.891 0.597 5.888-1.28 11.819-5.205 16.256-34.816 39.552-79.659 65.749-129.664 75.691-5.888 1.28-12.032-0.171-16.853-3.755-4.864-3.541-7.936-9.003-8.576-14.976-1.109-11.051-9.984-19.328-20.565-19.328s-19.456 8.32-20.565 19.328c-0.64 5.973-3.755 11.435-8.576 14.976-4.821 3.584-11.008 4.992-16.853 3.755-50.005-9.899-94.848-36.096-129.664-75.691-3.925-4.48-5.803-10.368-5.205-16.256 0.597-5.931 3.669-11.349 8.405-14.891 8.875-6.656 11.477-18.091 6.187-27.221s-16.512-12.587-26.624-8.277c-5.504 2.347-11.691 2.304-17.067-0.171-5.419-2.389-9.557-6.955-11.477-12.587-8.917-26.283-13.269-50.816-13.269-74.923s4.352-48.64 13.269-74.923c1.92-5.589 6.059-10.155 11.477-12.587s11.605-2.475 17.067-0.171c10.155 4.267 21.376 0.811 26.624-8.277 5.248-9.131 2.645-20.565-6.187-27.221-4.779-3.584-7.808-8.96-8.405-14.891-0.597-5.888 1.28-11.819 5.205-16.256 34.816-39.552 79.659-65.749 129.664-75.691 5.845-1.195 11.989 0.213 16.853 3.755s7.936 9.003 8.576 14.976c1.109 11.051 9.941 19.328 20.565 19.328s19.456-8.277 20.565-19.285c0.64-5.973 3.755-11.435 8.576-14.976 3.712-2.731 8.149-4.181 12.672-4.181 1.408 0 2.773 0.128 4.181 0.384 50.005 9.899 94.848 36.096 129.664 75.691 3.925 4.48 5.803 10.368 5.205 16.256-0.597 5.931-3.669 11.349-8.405 14.891-8.875 6.656-11.477 18.091-6.187 27.221s16.555 12.587 26.624 8.277c5.461-2.304 11.691-2.219 17.067 0.171 5.419 2.389 9.557 6.955 11.477 12.587 8.875 26.283 13.227 50.816 13.227 74.923s-4.352 48.64-13.227 74.923zM975.659 127.317c-23.723 1.024-45.099-10.795-57.003-31.36-11.861-20.523-10.709-45.483 1.323-64.939-21.632-20.48-46.976-35.371-74.581-43.904-10.667 20.523-31.872 34.219-56.064 34.219s-45.397-13.696-56.064-34.219c-27.648 8.491-52.949 23.424-74.581 43.904 12.032 19.413 13.184 44.373 1.323 64.939-11.904 20.608-33.92 32.341-57.003 31.36-3.797 15.061-5.675 29.355-5.675 43.307s1.877 28.245 5.675 43.307c22.997-0.469 45.099 10.795 57.003 31.36 11.861 20.523 10.709 45.483-1.323 64.939 21.632 20.48 46.976 35.371 74.581 43.904 10.667-20.523 31.872-34.219 56.064-34.219s45.397 13.696 56.064 34.219c27.648-8.491 52.949-23.424 74.581-43.904-12.032-19.413-13.184-44.373-1.323-64.939s33.28-31.872 57.003-31.36c3.797-15.061 5.675-29.355 5.675-43.307s-1.877-28.245-5.675-43.307zM789.333 277.333c-58.795 0-106.667-47.872-106.667-106.667s47.872-106.667 106.667-106.667 106.667 47.872 106.667 106.667-47.872 106.667-106.667 106.667zM789.333 106.667c-35.285 0-64 28.715-64 64s28.715 64 64 64c35.285 0 64-28.715 64-64s-28.715-64-64-64zM490.667 234.667h-256c-6.315 0-12.331-2.816-16.384-7.68l-175.616-210.731v751.744c0 82.347 66.987 149.333 149.333 149.333h597.333c82.347 0 149.333-66.987 149.333-149.333v-341.333c0-11.776 9.557-21.333 21.333-21.333s21.333 9.557 21.333 21.333v341.333c0 105.856-86.144 192-192 192h-597.333c-105.899 0-192-86.144-192-192v-810.667c0-8.96 5.632-16.981 14.080-20.053 2.347-0.853 4.821-1.28 7.253-1.28 6.229 0 12.245 2.688 16.384 7.68l206.933 248.32h246.016c11.776 0 21.333 9.557 21.333 21.333s-9.557 21.333-21.333 21.333zM213.333 554.667c0-35.285 28.715-64 64-64s64 28.715 64 64-28.715 64-64 64c-35.285 0-64-28.715-64-64zM298.667 554.667c0-11.776-9.557-21.333-21.333-21.333s-21.333 9.557-21.333 21.333 9.557 21.333 21.333 21.333 21.333-9.557 21.333-21.333zM490.667 618.667c-35.285 0-64-28.715-64-64s28.715-64 64-64c35.285 0 64 28.715 64 64s-28.715 64-64 64zM490.667 533.333c-11.776 0-21.333 9.557-21.333 21.333s9.557 21.333 21.333 21.333 21.333-9.557 21.333-21.333-9.557-21.333-21.333-21.333zM640 554.667c0-35.285 28.715-64 64-64s64 28.715 64 64-28.715 64-64 64c-35.285 0-64-28.715-64-64zM725.333 554.667c0-11.776-9.557-21.333-21.333-21.333s-21.333 9.557-21.333 21.333 9.557 21.333 21.333 21.333 21.333-9.557 21.333-21.333z" />
<glyph unicode="&#xe922;" glyph-name="Chat-User1" data-tags="Chat-User 1" d="M917.291 960.043h-426.667c-58.795 0-106.667-47.872-106.667-106.667v-42.667c0-11.776 9.557-21.333 21.333-21.333s21.333 9.557 21.333 21.333v42.667c0 35.285 28.715 64 64 64h426.667c35.285 0 64-28.715 64-64v-213.333c0-35.285-28.715-64-64-64h-128c-6.144 0-11.989-2.645-16.043-7.296l-103.467-118.229 12.672 101.547c0.768 6.059-1.109 12.203-5.163 16.768s-9.856 7.211-16 7.211h-21.333c-11.776 0-21.333-9.557-21.333-21.333 0-10.837 8.064-19.797 18.517-21.163l-18.347-146.859c-1.152-9.301 3.883-18.261 12.459-22.101 2.816-1.28 5.803-1.877 8.747-1.877 6.016 0 11.904 2.56 16 7.296l142.976 163.371h118.315c58.795 0 106.667 47.872 106.667 106.667v213.333c0 58.795-47.872 106.667-106.667 106.667zM790.016 42.752c-10.112 40.491-39.808 72.576-79.445 85.803l-146.731 48.853c-32.981 13.739-48.64 66.176-52.608 88.491 24.235 22.827 49.024 57.856 49.024 92.16 0 9.259 1.92 13.525 0.555 12.672 6.613 1.664 12.075 6.443 14.635 12.8 1.877 4.651 18.219 46.379 18.219 74.709 0 1.749-0.213 3.456-0.64 5.163-2.389 9.557-7.893 19.2-16.043 25.515v86.187c0 54.613-17.365 78.208-34.091 91.221-4.693 28.032-34.645 80.384-137.515 80.384-106.325 0-171.605-99.968-171.605-171.605v-86.187c-8.149-6.315-13.653-15.957-16.043-25.515-0.427-1.664-0.64-3.413-0.64-5.163 0-28.331 16.384-70.059 18.219-74.709 2.517-6.4 5.376-10.155 12.032-11.819 0.896-0.683 3.157-4.48 3.157-13.653 0-34.304 24.747-69.333 49.024-92.16-3.968-22.315-19.413-74.667-51.157-87.936l-148.181-49.408c-39.637-13.184-69.333-45.269-79.445-85.803l-20.053-80.213c-2.859-11.435 4.096-22.997 15.531-25.856 11.349-2.987 23.040 4.053 25.856 15.531l20.096 80.213c6.528 26.283 25.813 47.104 51.541 55.68l149.589 49.92c65.067 27.051 79.957 123.008 79.957 136.533 0 6.357-2.859 12.373-7.765 16.427-20.523 16.981-42.325 46.208-42.325 67.029 0 25.728-10.453 40.661-20.864 48.256-4.693 13.013-11.904 35.627-11.947 47.957 9.259 2.347 16.085 10.709 16.085 20.693v100.181c0 45.013 44.288 128.939 128.939 128.939 72.107 0 92.373-30.72 95.189-42.709-0.64-2.475-0.853-4.949-0.64-7.168 1.237-11.435 9.856-16.853 13.995-19.499 6.101-3.883 20.395-12.971 20.395-59.563v-100.181c0-10.112 7.040-18.56 16.512-20.779-1.152-13.44-7.211-33.749-12.331-47.829-10.411-7.552-20.864-22.485-20.864-48.256 0-20.821-21.803-50.048-42.325-67.029-4.949-4.011-7.765-10.069-7.765-16.427 0-13.525 14.891-109.483 81.365-137.088l148.181-49.408c25.728-8.576 44.971-29.397 51.541-55.68l20.053-80.213c2.389-9.728 11.093-16.171 20.651-16.171 1.707 0 3.456 0.213 5.205 0.64 11.435 2.859 18.389 14.421 15.531 25.856l-20.053 80.213z" />
<glyph unicode="&#xe923;" glyph-name="Chat-User2" data-tags="Chat-User 2" d="M917.333 959.957h-426.667c-58.795 0-106.667-47.872-106.667-106.667v-42.667c0-11.776 9.557-21.333 21.333-21.333s21.333 9.557 21.333 21.333v42.667c0 35.285 28.715 64 64 64h426.667c35.285 0 64-28.715 64-64v-213.333c0-35.285-28.715-64-64-64h-64c-6.144 0-11.989-2.645-16.043-7.296l-103.467-118.229 12.672 101.547c0.768 6.059-1.109 12.203-5.163 16.768s-9.856 7.211-16 7.211h-21.333c-11.776 0-21.333-9.557-21.333-21.333 0-10.837 8.064-19.797 18.517-21.163l-18.347-146.859c-1.152-9.301 3.883-18.261 12.459-22.101 2.816-1.28 5.803-1.877 8.747-1.877 6.016 0 11.904 2.56 16 7.296l142.976 163.371h54.315c58.795 0 106.667 47.872 106.667 106.667v213.333c0 58.795-47.872 106.667-106.667 106.667zM665.003 144l-125.227 31.317-9.557 38.272c33.237 33.749 56.149 79.232 63.616 126.037 19.328 6.613 34.005 23.765 36.651 45.013l8.363 66.773c1.92 15.403-2.816 30.976-13.056 42.667-5.205 5.973-11.605 10.709-18.731 13.909l2.816 57.813 11.349 11.349c19.968 21.205 36.523 57.472 2.304 109.781-25.984 39.637-69.845 59.733-130.389 59.733-23.467 0-77.312 0-128-33.493-145.024-3.456-164.779-71.595-164.779-138.112 0-14.464 3.243-45.269 5.632-65.963-7.936-3.115-15.104-8.107-20.864-14.635-10.411-11.733-15.232-27.435-13.312-43.008l8.363-66.773c2.816-22.656 19.371-40.747 40.661-46.208 7.424-44.885 29.141-88.747 60.373-121.813l-10.325-41.344-125.227-31.317c-85.76-21.419-145.664-98.176-145.664-186.624 0-5.632 2.219-11.136 6.229-15.104s9.472-6.229 15.104-6.229l768 0.085c11.776 0 21.333 9.557 21.333 21.333 0 88.405-59.904 165.12-145.664 186.539zM44.203-21.205c8.491 59.52 52.096 108.928 111.872 123.861l137.643 34.432c7.637 1.92 13.653 7.893 15.531 15.531l16.384 65.493c1.877 7.509-0.469 15.445-6.101 20.736-32.939 30.848-54.741 76.075-58.283 120.96-0.896 11.093-10.155 19.627-21.291 19.627h-5.419c-6.059 0-11.179 4.565-11.947 10.581l-8.363 66.773c-0.597 4.736 1.579 7.979 2.944 9.515 1.323 1.493 4.309 4.053 12.459 4.053 6.144 0 11.947 2.603 16 7.211 4.053 4.565 5.931 10.667 5.163 16.768-2.133 17.024-7.68 64.725-7.68 80.811 0 51.584 9.685 94.336 129.109 95.531 4.352 0.043 8.661 1.408 12.16 3.968 36.181 25.899 75.307 29.397 108.8 29.397 45.269 0 77.099-13.611 94.677-40.448 20.309-30.976 12.544-46.293 2.773-56.704l-16.725-16.725c-3.755-3.755-5.973-8.747-6.229-14.037l-4.053-83.541c-0.299-5.803 1.792-11.435 5.76-15.659 3.968-4.181 9.472-6.656 15.275-6.699 4.736-0.043 7.68-2.603 9.003-4.139 1.323-1.493 3.456-4.736 2.859-9.344l-8.363-66.773c-0.768-6.059-5.888-10.581-13.611-10.581-11.136 0-20.395-8.533-21.291-19.627-3.627-46.293-26.453-92.416-61.013-123.435-5.888-5.248-8.363-13.355-6.443-21.035l15.701-62.72c1.92-7.637 7.893-13.653 15.531-15.531l137.643-34.432c59.733-14.933 103.339-64.341 111.829-123.904l-722.304 0.085z" />
<glyph unicode="&#xe924;" glyph-name="Chat-User3" data-tags="Chat-User 3" d="M704 960.043c-134.485 0-255.317-56.363-300.672-140.203-5.589-10.368-1.749-23.339 8.619-28.928 10.368-5.632 23.339-1.749 28.928 8.619 38.101 70.485 143.872 117.845 263.125 117.845 152.917 0 277.333-76.544 277.333-170.667 0-71.595-74.283-136.107-184.789-160.597-4.395-0.981-8.363-3.285-11.349-6.656l-116.565-131.115 11.819 106.411c0.64 5.675-1.067 11.392-4.651 15.829-3.584 4.395-8.832 7.211-14.507 7.765-5.717 0.555-11.349 1.323-16.939 2.133l-1.365 0.171c-11.52 1.749-21.76-6.613-23.424-18.261-1.536-10.752 5.845-20.864 16.171-23.637l-16.939-152.363c-1.024-9.216 4.053-18.048 12.544-21.845 2.773-1.237 5.717-1.835 8.661-1.835 5.973 0 11.819 2.517 15.915 7.168l156.587 176.128c126.848 30.208 211.499 110.208 211.499 200.704 0 117.632-143.531 213.333-320 213.333zM789.973 42.752c-10.112 40.491-39.808 72.576-79.445 85.803l-146.731 48.853c-32.981 13.739-48.64 66.176-52.608 88.491 24.235 22.827 49.024 57.856 49.024 92.16 0 9.259 2.048 13.525 0.555 12.672 6.613 1.664 12.075 6.443 14.635 12.8 1.877 4.651 18.219 46.379 18.219 74.709 0 1.749-0.213 3.456-0.64 5.163-2.389 9.557-7.893 19.2-16.043 25.515v86.187c0 54.613-17.365 78.208-34.091 91.221-4.693 28.032-34.645 80.384-137.515 80.384-106.325 0-171.605-99.968-171.605-171.605v-86.187c-8.149-6.315-13.653-15.957-16.043-25.515-0.427-1.664-0.64-3.413-0.64-5.163 0-28.331 16.384-70.059 18.219-74.709 2.517-6.4 5.376-10.155 12.032-11.819 0.896-0.683 3.157-4.48 3.157-13.653 0-34.304 24.747-69.333 49.024-92.16-3.968-22.315-19.413-74.667-51.157-87.936l-148.181-49.408c-39.637-13.184-69.333-45.269-79.445-85.803l-20.053-80.213c-2.859-11.435 4.096-22.997 15.531-25.856 11.392-2.987 23.040 4.053 25.856 15.531l20.096 80.213c6.528 26.283 25.813 47.104 51.541 55.68l149.589 49.92c65.067 27.051 79.957 123.008 79.957 136.533 0 6.357-2.859 12.373-7.765 16.427-20.523 16.981-42.325 46.208-42.325 67.029 0 25.728-10.453 40.661-20.864 48.256-4.693 13.013-11.904 35.627-11.947 47.957 9.259 2.347 16.085 10.709 16.085 20.693v100.181c0 45.013 44.288 128.939 128.939 128.939 72.107 0 92.373-30.72 95.232-42.709-0.64-2.475-0.853-4.949-0.64-7.168 1.237-11.435 9.856-16.853 13.995-19.499 6.101-3.883 20.395-12.971 20.395-59.563v-100.181c0-10.112 7.040-18.56 16.512-20.779-1.152-13.44-7.211-33.749-12.331-47.829-10.411-7.552-20.864-22.485-20.864-48.256 0-20.821-21.803-50.048-42.325-67.029-4.949-4.011-7.765-10.069-7.765-16.427 0-13.525 14.891-109.483 81.365-137.088l148.181-49.408c25.728-8.576 44.971-29.397 51.541-55.68l20.053-80.213c2.389-9.728 11.093-16.171 20.651-16.171 1.707 0 3.456 0.213 5.163 0.64 11.435 2.859 18.389 14.421 15.531 25.856l-20.053 80.213z" />
<glyph unicode="&#xe925;" glyph-name="Chat-User4" data-tags="Chat-User 4" d="M708.523 960c-134.485 0-255.275-56.363-300.629-140.203-5.632-10.368-1.749-23.339 8.576-28.928 10.411-5.589 23.339-1.792 28.928 8.619 38.144 70.485 143.872 117.845 263.125 117.845 150.443 0 272.811-76.544 272.811-170.667 0-81.579-54.656-138.624-153.984-160.64-4.395-0.981-8.363-3.285-11.349-6.656l-116.523-131.115 11.819 106.411c0.64 5.675-1.024 11.392-4.651 15.829-3.584 4.395-8.832 7.211-14.507 7.765-5.76 0.555-11.435 1.365-17.109 2.176l-1.195 0.171c-11.392 1.579-21.888-6.528-23.509-18.219-1.493-10.837 5.931-20.949 16.299-23.68l-16.939-152.363c-1.024-9.216 4.053-18.048 12.544-21.845 2.773-1.237 5.76-1.835 8.661-1.835 5.931 0 11.776 2.517 15.957 7.168l156.587 176.171c114.859 27.605 180.565 100.437 180.565 200.661 0 119.637-138.581 213.333-315.477 213.333zM665.088 144l-125.227 31.317-9.6 38.272c33.237 33.707 56.149 79.189 63.616 126.037 19.328 6.613 34.005 23.765 36.651 45.013l8.32 66.773c1.963 15.403-2.816 30.976-13.013 42.667-5.205 5.973-11.605 10.709-18.731 13.909l2.816 57.813 11.307 11.349c19.968 21.205 36.608 57.472 2.304 109.781-25.941 39.637-69.803 59.733-130.347 59.733-23.509 0-77.355 0-128-33.493-145.024-3.456-164.821-71.595-164.821-138.112 0-14.464 3.243-45.269 5.675-65.963-7.936-3.115-15.104-8.149-20.907-14.677-10.411-11.776-15.232-27.435-13.269-43.008l8.32-66.773c2.816-22.656 19.371-40.704 40.661-46.208 7.467-44.885 29.141-88.747 60.373-121.813l-10.325-41.344-125.227-31.317c-85.76-21.419-145.664-98.176-145.664-186.624 0-5.675 2.219-11.136 6.229-15.104s9.429-6.229 15.104-6.229l768.085 0.128c11.776 0 21.333 9.557 21.333 21.333 0 88.405-59.904 165.12-145.664 186.539zM44.16-21.248c8.491 59.52 52.139 108.885 111.915 123.819l137.643 34.432c7.637 1.92 13.611 7.893 15.531 15.531l16.384 65.493c1.877 7.509-0.469 15.445-6.144 20.736-32.896 30.891-54.699 76.117-58.283 121.003-0.853 11.093-10.112 19.627-21.248 19.627h-5.419c-6.059 0-11.179 4.565-11.947 10.581l-8.32 66.773c-0.597 4.693 1.579 7.936 2.901 9.472s4.309 4.096 12.501 4.096c6.144 0 11.947 2.603 16 7.211s5.931 10.709 5.163 16.811c-2.176 16.981-7.765 64.683-7.765 80.768 0 51.541 9.685 94.336 129.152 95.531 4.352 0.043 8.661 1.408 12.203 3.968 36.224 25.899 75.307 29.397 108.8 29.397 45.269 0 77.099-13.611 94.677-40.448 20.267-30.976 12.501-46.293 2.731-56.747l-16.683-16.725c-3.755-3.755-5.973-8.747-6.229-14.037l-4.096-83.541c-0.299-5.803 1.792-11.435 5.76-15.659 3.968-4.181 9.472-6.656 15.275-6.699 4.736-0.043 7.68-2.603 9.003-4.139 1.28-1.493 3.413-4.736 2.816-9.344l-8.32-66.773c-0.725-6.059-5.845-10.581-13.568-10.581-11.136 0-20.352-8.533-21.248-19.627-3.712-46.293-26.496-92.416-61.099-123.392-5.845-5.291-8.363-13.397-6.443-21.077l15.701-62.72c1.92-7.595 7.851-13.611 15.531-15.488l137.643-34.432c59.691-14.933 103.339-64.341 111.829-123.904l-722.347 0.085z" />
<glyph unicode="&#xe926;" glyph-name="Check-Out" data-tags="Check-Out" d="M1002.667 704h-42.667c-12.8 0-21.333-8.533-21.333-21.333s8.533-21.333 21.333-21.333h21.333v-554.667h-810.667v21.333c0 12.8-8.533 21.333-21.333 21.333s-21.333-8.533-21.333-21.333v-42.667c0-12.8 8.533-21.333 21.333-21.333h853.333c12.8 0 21.333 8.533 21.333 21.333v597.333c0 12.8-8.533 21.333-21.333 21.333zM704 704h85.333c12.8 0 21.333 8.533 21.333 21.333s-8.533 21.333-21.333 21.333h-85.333c-12.8 0-21.333-8.533-21.333-21.333s8.533-21.333 21.333-21.333zM106.667 277.333h85.333c12.8 0 21.333 8.533 21.333 21.333s-8.533 21.333-21.333 21.333h-85.333c-12.8 0-21.333-8.533-21.333-21.333s8.533-21.333 21.333-21.333zM896 213.333v597.333c0 12.8-8.533 21.333-21.333 21.333h-853.333c-12.8 0-21.333-8.533-21.333-21.333v-597.333c0-12.8 8.533-21.333 21.333-21.333h853.333c12.8 0 21.333 8.533 21.333 21.333zM853.333 234.667h-810.667v554.667h810.667v-554.667zM384 448c0 12.8-12.8 21.333-21.333 21.333-12.8 0-21.333-12.8-21.333-21.333 4.267-38.4 38.4-72.533 85.333-76.8v-21.333c0-12.8 8.533-21.333 21.333-21.333s21.333 8.533 21.333 21.333v12.8c46.933 8.533 85.333 42.667 85.333 85.333 0 38.4-29.867 68.267-85.333 81.067v85.333c25.6-4.267 42.667-21.333 42.667-38.4 0-12.8 12.8-21.333 21.333-21.333 12.8 0 21.333 12.8 21.333 21.333-4.267 38.4-38.4 72.533-85.333 76.8v21.333c0 12.8-8.533 21.333-21.333 21.333s-21.333-8.533-21.333-21.333v-21.333c-46.933-8.533-85.333-42.667-85.333-85.333 0-29.867 29.867-59.733 85.333-72.533v-85.333c-25.6 4.267-42.667 21.333-42.667 38.4zM469.333 486.4c29.867-8.533 42.667-21.333 42.667-38.4s-17.067-34.133-42.667-38.4v76.8zM384 576c0 17.067 17.067 34.133 42.667 38.4v-76.8c-29.867 8.533-42.667 21.333-42.667 38.4z" />
<glyph unicode="&#xe927;" glyph-name="Clear-Bag" data-tags="Clear-Bag" d="M426.667 213.333c8.533 0 12.8 0 17.067 4.267l68.267 68.267 68.267-68.267c4.267-4.267 8.533-4.267 17.067-4.267s12.8 0 17.067 4.267c8.533 8.533 8.533 21.333 0 29.867l-68.267 68.267 68.267 68.267c8.533 8.533 8.533 21.333 0 29.867s-21.333 8.533-29.867 0l-68.267-68.267-68.267 68.267c-8.533 8.533-21.333 8.533-29.867 0s-8.533-21.333 0-29.867l68.267-68.267-68.267-68.267c-12.8-4.267-12.8-21.333-8.533-29.867 4.267-4.267 8.533-4.267 17.067-4.267zM256 512c12.8 0 21.333 8.533 21.333 21.333v256c0 59.733 46.933 106.667 106.667 106.667h256c59.733 0 106.667-46.933 106.667-106.667v-256c0-12.8 8.533-21.333 21.333-21.333s21.333 8.533 21.333 21.333v256c0 81.067-68.267 149.333-149.333 149.333h-256c-81.067 0-149.333-68.267-149.333-149.333v-256c0-12.8 8.533-21.333 21.333-21.333zM981.333 682.667h-128c-12.8 0-21.333-8.533-21.333-21.333s8.533-21.333 21.333-21.333h106.667v-640h-896v640h106.667c12.8 0 21.333 8.533 21.333 21.333s-8.533 21.333-21.333 21.333h-128c-12.8 0-21.333-8.533-21.333-21.333v-682.667c0-12.8 8.533-21.333 21.333-21.333h938.667c12.8 0 21.333 8.533 21.333 21.333v682.667c0 12.8-8.533 21.333-21.333 21.333zM682.667 640c12.8 0 21.333 8.533 21.333 21.333s-8.533 21.333-21.333 21.333h-341.333c-12.8 0-21.333-8.533-21.333-21.333s8.533-21.333 21.333-21.333h341.333zM512 85.333c128 0 234.667 106.667 234.667 234.667s-106.667 234.667-234.667 234.667-234.667-106.667-234.667-234.667 106.667-234.667 234.667-234.667zM512 512c106.667 0 192-85.333 192-192s-85.333-192-192-192-192 85.333-192 192 85.333 192 192 192z" />
<glyph unicode="&#xe928;" glyph-name="Clear-Cart2" data-tags="Clear-Cart 2" d="M704 618.667c8.533 0 12.8 0 17.067 4.267l68.267 68.267 68.267-68.267c4.267-4.267 8.533-4.267 17.067-4.267s12.8 0 17.067 4.267c8.533 8.533 8.533 21.333 0 29.867l-68.267 68.267 68.267 68.267c8.533 8.533 8.533 21.333 0 29.867s-21.333 8.533-29.867 0l-68.267-68.267-68.267 68.267c-8.533 8.533-21.333 8.533-29.867 0s-8.533-21.333 0-29.867l68.267-68.267-68.267-68.267c-12.8-4.267-12.8-21.333-8.533-29.867 4.267-4.267 8.533-4.267 17.067-4.267zM789.333 490.667c128 0 234.667 106.667 234.667 234.667s-106.667 234.667-234.667 234.667-234.667-106.667-234.667-234.667 106.667-234.667 234.667-234.667zM789.333 917.333c106.667 0 192-85.333 192-192s-85.333-192-192-192-192 85.333-192 192 85.333 192 192 192zM362.667 149.333c-59.733 0-106.667-46.933-106.667-106.667s46.933-106.667 106.667-106.667c59.733 0 106.667 46.933 106.667 106.667s-46.933 106.667-106.667 106.667zM362.667-21.333c-34.133 0-64 29.867-64 64s29.867 64 64 64 64-29.867 64-64-29.867-64-64-64zM942.933 490.667c-12.8 4.267-21.333-4.267-25.6-17.067l-17.067-72.533-622.933-81.067-76.8 384h290.133c12.8 0 21.333 8.533 21.333 21.333s-8.533 21.333-21.333 21.333h-298.667l-21.333 110.933c0 8.533-12.8 17.067-21.333 17.067h-128c-12.8 0-21.333-8.533-21.333-21.333s8.533-21.333 21.333-21.333h110.933l102.4-520.533c12.8-68.267 76.8-119.467 145.067-119.467h490.667c12.8 0 21.333 8.533 21.333 21.333s-8.533 21.333-21.333 21.333h-486.4c-34.133 0-68.267 17.067-85.333 46.933l622.933 85.333c8.533 0 17.067 8.533 17.067 17.067l21.333 85.333c4.267 4.267-4.267 17.067-17.067 21.333zM789.333 149.333c-59.733 0-106.667-46.933-106.667-106.667s46.933-106.667 106.667-106.667c59.733 0 106.667 46.933 106.667 106.667s-46.933 106.667-106.667 106.667zM789.333-21.333c-34.133 0-64 29.867-64 64s29.867 64 64 64 64-29.867 64-64-29.867-64-64-64z" />
<glyph unicode="&#xe929;" glyph-name="Conference-Chat" data-tags="Conference-Chat" d="M903.893 199.083c21.248 19.499 34.773 47.232 34.773 78.251 0 52.181-37.717 95.531-87.296 104.704-9.173 49.579-52.523 87.296-104.704 87.296-58.837 0-106.667-47.872-106.667-106.667 0-31.019 13.525-58.752 34.773-78.251-70.315-28.544-120.107-97.365-120.107-177.749 0-11.776 9.557-21.333 21.333-21.333h75.819c-7.211-20.096-11.819-41.472-11.819-64 0-11.776 9.557-21.333 21.333-21.333h341.333c11.776 0 21.333 9.557 21.333 21.333 0 80.384-49.792 149.205-120.107 177.749zM896 277.333c0-35.285-28.715-64-64-64s-64 28.715-64 64c0 35.285 28.715 64 64 64s64-28.715 64-64zM746.667 426.667c28.885 0 53.077-19.371 61.013-45.739-39.253-9.216-70.059-40.064-79.275-79.317-26.368 7.979-45.739 32.171-45.739 61.056 0 35.285 28.715 64 64 64zM598.827 128c9.515 66.133 62.677 117.888 129.152 126.293 4.821-21.675 16.299-40.661 32.085-55.211-35.797-14.549-66.304-39.381-87.595-71.083h-73.643zM684.16 42.667c10.411 72.277 72.747 128 147.84 128s137.429-55.723 147.84-128h-295.68zM533.291 256.043h-85.333c-5.077 0-9.984-1.835-13.867-5.163l-218.453-187.221 80.768 161.493c3.328 6.571 2.987 14.464-0.896 20.736-3.925 6.272-10.795 10.112-18.176 10.112h-128c-58.837 0-106.667 47.872-106.667 106.667v426.667c0 58.795 47.829 106.667 106.667 106.667h640c58.837 0 106.667-47.872 106.667-106.667v-362.667c0-11.776 9.557-21.333 21.333-21.333s21.333 9.557 21.333 21.333v362.667c0 82.347-66.987 149.333-149.333 149.333h-640c-82.347 0-149.333-66.987-149.333-149.333v-426.667c0-82.347 66.987-149.333 149.333-149.333h93.483l-112.597-225.109c-4.523-9.088-2.048-20.139 5.973-26.368 3.883-3.029 8.533-4.523 13.141-4.523 4.949 0 9.899 1.749 13.867 5.205l292.651 250.837h77.44c11.776 0 21.333 9.557 21.333 21.333s-9.557 21.333-21.333 21.333zM213.333 576c0-35.285 28.715-64 64-64s64 28.715 64 64c0 35.285-28.715 64-64 64s-64-28.715-64-64zM298.667 576c0-11.776-9.6-21.333-21.333-21.333s-21.333 9.557-21.333 21.333 9.6 21.333 21.333 21.333c11.733 0 21.333-9.557 21.333-21.333zM426.667 576c0-35.285 28.715-64 64-64s64 28.715 64 64c0 35.285-28.715 64-64 64s-64-28.715-64-64zM512 576c0-11.776-9.6-21.333-21.333-21.333s-21.333 9.557-21.333 21.333 9.6 21.333 21.333 21.333c11.733 0 21.333-9.557 21.333-21.333zM640 576c0-35.285 28.715-64 64-64s64 28.715 64 64c0 35.285-28.715 64-64 64s-64-28.715-64-64zM725.333 576c0-11.776-9.6-21.333-21.333-21.333s-21.333 9.557-21.333 21.333 9.6 21.333 21.333 21.333c11.733 0 21.333-9.557 21.333-21.333z" />
<glyph unicode="&#xe92a;" glyph-name="Conference-Speach" data-tags="Conference-Speach" d="M853.333 938.667h-682.667c-82.347 0-149.333-66.987-149.333-149.333v-426.667c0-82.347 66.987-149.333 149.333-149.333h93.483l-112.555-225.152c-4.395-8.832-2.176-19.584 5.419-25.899 3.925-3.285 8.789-4.949 13.653-4.949 4.48 0 9.003 1.408 12.8 4.267l335.659 251.733h334.208c82.347 0 149.333 66.987 149.333 149.333v426.667c0 82.347-66.987 149.333-149.333 149.333zM960 362.667c0-58.795-47.829-106.667-106.667-106.667h-341.333c-4.651 0-9.131-1.493-12.8-4.267l-269.056-201.728 87.595 175.147c3.328 6.571 2.987 14.464-0.896 20.736-3.925 6.272-10.795 10.112-18.176 10.112h-128c-58.837 0-106.667 47.872-106.667 106.667v426.667c0 58.795 47.829 106.667 106.667 106.667h682.667c58.837 0 106.667-47.872 106.667-106.667v-426.667zM682.667 768c-11.776 0-21.333-9.557-21.333-21.333v-21.333c-94.123 0-170.667-76.544-170.667-170.667s76.544-170.667 170.667-170.667 170.667 76.544 170.667 170.667h21.333c11.776 0 21.333 9.557 21.333 21.333 0 105.856-86.144 192-192 192zM661.333 426.667c-70.571 0-128 57.429-128 128s57.429 128 128 128v-106.667c0-11.776 9.557-21.333 21.333-21.333h106.667c0-70.571-57.429-128-128-128zM704 597.333v126.464c65.28-9.344 117.077-61.141 126.507-126.464h-126.507zM170.667 512c-11.776 0-21.333-9.557-21.333-21.333v-85.333c0-11.776 9.557-21.333 21.333-21.333s21.333 9.557 21.333 21.333v85.333c0 11.776-9.557 21.333-21.333 21.333zM256 597.333c-11.776 0-21.333-9.557-21.333-21.333v-170.667c0-11.776 9.557-21.333 21.333-21.333s21.333 9.557 21.333 21.333v170.667c0 11.776-9.557 21.333-21.333 21.333zM341.333 682.667c-11.776 0-21.333-9.557-21.333-21.333v-256c0-11.776 9.557-21.333 21.333-21.333s21.333 9.557 21.333 21.333v256c0 11.776-9.557 21.333-21.333 21.333zM426.667 768c-11.776 0-21.333-9.557-21.333-21.333v-341.333c0-11.776 9.557-21.333 21.333-21.333s21.333 9.557 21.333 21.333v341.333c0 11.776-9.557 21.333-21.333 21.333z" />
<glyph unicode="&#xe92b;" glyph-name="Credit-Card" data-tags="Credit-Card" d="M725.333 234.667c17.067 0 29.867 4.267 42.667 12.8 12.8-8.533 25.6-12.8 42.667-12.8 46.933 0 85.333 38.4 85.333 85.333s-38.4 85.333-85.333 85.333c-17.067 0-29.867-4.267-42.667-12.8-12.8 8.533-25.6 12.8-42.667 12.8-46.933 0-85.333-38.4-85.333-85.333s38.4-85.333 85.333-85.333zM772.267 337.067c4.267 4.267 4.267 8.533 8.533 12.8 8.533 8.533 17.067 12.8 29.867 12.8 25.6 0 42.667-17.067 42.667-42.667s-17.067-42.667-42.667-42.667c-12.8 0-21.333 4.267-29.867 12.8-4.267 4.267-8.533 8.533-8.533 12.8-4.267 4.267-4.267 12.8-4.267 17.067s0 12.8 4.267 17.067zM725.333 362.667c4.267 0 8.533 0 12.8 0-4.267-4.267-4.267-8.533-4.267-17.067v-4.267c0-8.533-4.267-12.8-4.267-21.333s0-12.8 4.267-21.333v-4.267c0-4.267 4.267-8.533 4.267-17.067-25.6-8.533-55.467 12.8-55.467 42.667 0 25.6 17.067 42.667 42.667 42.667zM149.333 320h170.667c12.8 0 21.333 8.533 21.333 21.333s-8.533 21.333-21.333 21.333h-170.667c-12.8 0-21.333-8.533-21.333-21.333s8.533-21.333 21.333-21.333zM149.333 234.667h298.667c12.8 0 21.333 8.533 21.333 21.333s-8.533 21.333-21.333 21.333h-298.667c-12.8 0-21.333-8.533-21.333-21.333s8.533-21.333 21.333-21.333zM917.333 789.333h-810.667c-59.733 0-106.667-46.933-106.667-106.667v-42.667c0-12.8 8.533-21.333 21.333-21.333h981.333c12.8 0 21.333 8.533 21.333 21.333v42.667c0 59.733-46.933 106.667-106.667 106.667zM981.333 661.333h-938.667v21.333c0 34.133 29.867 64 64 64h810.667c34.133 0 64-29.867 64-64v-21.333zM1002.667 533.333h-981.333c-12.8 0-21.333-8.533-21.333-21.333v-298.667c0-59.733 46.933-106.667 106.667-106.667h810.667c59.733 0 106.667 46.933 106.667 106.667v298.667c0 12.8-8.533 21.333-21.333 21.333zM981.333 213.333c0-34.133-29.867-64-64-64h-810.667c-34.133 0-64 29.867-64 64v277.333h938.667v-277.333z" />
<glyph unicode="&#xe92c;" glyph-name="Cuppon" data-tags="Cuppon" d="M315.733 490.667c-34.133 0-64-29.867-64-64s29.867-64 64-64 64 29.867 64 64-29.867 64-64 64zM315.733 405.333c-12.8 0-21.333 8.533-21.333 21.333s8.533 21.333 21.333 21.333 21.333-8.533 21.333-21.333-8.533-21.333-21.333-21.333zM785.067 832c-59.733 0-106.667-46.933-106.667-106.667s46.933-106.667 106.667-106.667c59.733 0 106.667 46.933 106.667 106.667s-42.667 106.667-106.667 106.667zM785.067 661.333c-34.133 0-64 29.867-64 64s29.867 64 64 64 64-29.867 64-64-29.867-64-64-64zM443.733 576c-12.8 0-21.333-8.533-21.333-21.333v-341.333c0-12.8 8.533-21.333 21.333-21.333s21.333 8.533 21.333 21.333v341.333c0 12.8-8.533 21.333-21.333 21.333zM913.067 960h-268.8c-51.2 0-98.133-21.333-136.533-55.467l-473.6-473.6c-21.333-21.333-38.4-55.467-38.4-89.6s12.8-64 38.4-89.6l281.6-281.6c21.333-21.333 55.467-38.4 89.6-38.4s64 12.8 89.6 38.4l473.6 473.6c34.133 34.133 55.467 85.333 55.467 136.533v268.8c-4.267 64-46.933 110.933-110.933 110.933zM977.067 584.533c0-38.4-17.067-76.8-42.667-106.667l-473.6-473.6c-29.867-29.867-85.333-29.867-115.2 0l-281.6 281.6c-17.067 17.067-25.6 34.133-25.6 59.733 0 21.333 8.533 42.667 25.6 59.733l473.6 473.6c29.867 29.867 64 42.667 106.667 42.667h268.8c34.133 0 64-29.867 64-64v-273.067zM571.733 405.333c-34.133 0-64-29.867-64-64s29.867-64 64-64 64 29.867 64 64-29.867 64-64 64zM571.733 320c-12.8 0-21.333 8.533-21.333 21.333s8.533 21.333 21.333 21.333 21.333-8.533 21.333-21.333-8.533-21.333-21.333-21.333z" />
<glyph unicode="&#xe92d;" glyph-name="Dismiss-Bag" data-tags="Dismiss-Bag" d="M981.333 682.667h-128c-12.8 0-21.333-8.533-21.333-21.333s8.533-21.333 21.333-21.333h106.667v-640h-896v640h106.667c12.8 0 21.333 8.533 21.333 21.333s-8.533 21.333-21.333 21.333h-128c-12.8 0-21.333-8.533-21.333-21.333v-682.667c0-12.8 8.533-21.333 21.333-21.333h938.667c12.8 0 21.333 8.533 21.333 21.333v682.667c0 12.8-8.533 21.333-21.333 21.333zM512 85.333c64 0 123.733 25.6 166.4 68.267s68.267 102.4 68.267 166.4c0 128-106.667 234.667-234.667 234.667-64 0-123.733-25.6-166.4-68.267s-68.267-102.4-68.267-166.4c0-128 106.667-234.667 234.667-234.667zM512 512c106.667 0 192-85.333 192-192 0-46.933-17.067-85.333-42.667-119.467l-268.8 268.8c34.133 25.6 72.533 42.667 119.467 42.667zM362.667 439.467l268.8-268.8c-34.133-25.6-72.533-42.667-119.467-42.667-106.667 0-192 85.333-192 192 0 46.933 17.067 85.333 42.667 119.467zM256 512c12.8 0 21.333 8.533 21.333 21.333v256c0 59.733 46.933 106.667 106.667 106.667h256c59.733 0 106.667-46.933 106.667-106.667v-256c0-12.8 8.533-21.333 21.333-21.333s21.333 8.533 21.333 21.333v256c0 81.067-68.267 149.333-149.333 149.333h-256c-81.067 0-149.333-68.267-149.333-149.333v-256c0-12.8 8.533-21.333 21.333-21.333zM682.667 640c12.8 0 21.333 8.533 21.333 21.333s-8.533 21.333-21.333 21.333h-341.333c-12.8 0-21.333-8.533-21.333-21.333s8.533-21.333 21.333-21.333h341.333z" />
<glyph unicode="&#xe92e;" glyph-name="Dismiss-Cart" data-tags="Dismiss-Cart" d="M789.333 149.333c-59.733 0-106.667-46.933-106.667-106.667s46.933-106.667 106.667-106.667c59.733 0 106.667 46.933 106.667 106.667s-46.933 106.667-106.667 106.667zM789.333-21.333c-34.133 0-64 29.867-64 64s29.867 64 64 64 64-29.867 64-64-29.867-64-64-64zM362.667 149.333c-59.733 0-106.667-46.933-106.667-106.667s46.933-106.667 106.667-106.667c59.733 0 106.667 46.933 106.667 106.667s-46.933 106.667-106.667 106.667zM362.667-21.333c-34.133 0-64 29.867-64 64s29.867 64 64 64 64-29.867 64-64-29.867-64-64-64zM942.933 490.667c-12.8 4.267-21.333-4.267-25.6-17.067l-17.067-72.533-622.933-81.067-76.8 384h290.133c12.8 0 21.333 8.533 21.333 21.333s-8.533 21.333-21.333 21.333h-298.667l-21.333 110.933c0 8.533-12.8 17.067-21.333 17.067h-128c-12.8 0-21.333-8.533-21.333-21.333s8.533-21.333 21.333-21.333h110.933l102.4-520.533c12.8-68.267 76.8-119.467 145.067-119.467h490.667c12.8 0 21.333 8.533 21.333 21.333s-8.533 21.333-21.333 21.333h-486.4c-34.133 0-68.267 17.067-85.333 46.933l622.933 85.333c8.533 0 17.067 8.533 17.067 17.067l21.333 85.333c4.267 4.267-4.267 17.067-17.067 21.333zM789.333 490.667c64 0 123.733 25.6 166.4 68.267s68.267 102.4 68.267 166.4c0 128-106.667 234.667-234.667 234.667-64 0-123.733-25.6-166.4-68.267s-68.267-102.4-68.267-166.4c0-128 106.667-234.667 234.667-234.667zM789.333 917.333c106.667 0 192-85.333 192-192 0-46.933-17.067-85.333-42.667-119.467l-268.8 268.8c34.133 25.6 72.533 42.667 119.467 42.667zM640 844.8l268.8-268.8c-34.133-25.6-72.533-42.667-119.467-42.667-106.667 0-192 85.333-192 192 0 46.933 17.067 85.333 42.667 119.467z" />
<glyph unicode="&#xe92f;" glyph-name="Dismiss-Chat1" data-tags="Dismiss-Chat 1" d="M955.605 5.291c42.24 42.453 68.395 100.907 68.395 165.376 0 129.408-105.301 234.667-234.667 234.667-64.512 0-123.051-26.197-165.504-68.48-0.128-0.128-0.299-0.171-0.427-0.299s-0.171-0.299-0.299-0.427c-42.24-42.453-68.437-100.949-68.437-165.461 0-129.408 105.301-234.667 234.667-234.667 64.427 0 122.837 26.112 165.291 68.267 0.171 0.171 0.427 0.213 0.597 0.427s0.213 0.427 0.384 0.597zM981.333 170.667c0-45.269-16.384-86.357-42.709-119.211l-268.501 268.544c32.853 26.283 73.941 42.667 119.211 42.667 105.856 0 192-86.101 192-192zM597.333 170.667c0 45.227 16.384 86.315 42.667 119.168l268.459-268.501c-32.853-26.283-73.899-42.667-119.125-42.667-105.856 0-192 86.144-192 192zM213.333 597.333c0-35.243 28.715-64 64-64s64 28.757 64 64c0 35.328-28.715 64-64 64s-64-28.672-64-64zM298.667 597.333c0-11.776-9.6-21.333-21.333-21.333s-21.333 9.557-21.333 21.333 9.6 21.333 21.333 21.333c11.733 0 21.333-9.557 21.333-21.333zM490.667 661.333c-35.285 0-64-28.672-64-64 0-35.285 28.715-64 64-64s64 28.715 64 64c0 35.328-28.715 64-64 64zM490.667 576c-11.733 0-21.333 9.557-21.333 21.333s9.6 21.333 21.333 21.333c11.733 0 21.333-9.557 21.333-21.333s-9.6-21.333-21.333-21.333zM640 597.333c0-35.285 28.715-64 64-64s64 28.715 64 64c0 35.328-28.715 64-64 64s-64-28.672-64-64zM725.333 597.333c0-11.776-9.6-21.333-21.333-21.333s-21.333 9.557-21.333 21.333 9.6 21.333 21.333 21.333c11.733 0 21.333-9.557 21.333-21.333zM512 277.333h-21.333c-4.651 0-9.131-1.493-12.8-4.267l-269.056-201.771 87.595 175.147c3.328 6.571 2.987 14.464-0.896 20.736-3.925 6.272-10.795 10.155-18.176 10.155h-128c-58.837 0-106.667 47.829-106.667 106.667v426.667c0 58.795 47.829 106.667 106.667 106.667h682.667c58.837 0 106.667-47.872 106.667-106.667v-405.333c0-11.776 9.557-21.333 21.333-21.333s21.333 9.557 21.333 21.333v405.333c0 82.347-66.987 149.333-149.333 149.333h-682.667c-82.347 0-149.333-66.987-149.333-149.333v-426.667c0-82.347 66.987-149.333 149.333-149.333h93.525l-112.597-225.109c-4.395-8.832-2.176-19.584 5.419-25.899 3.925-3.328 8.789-4.992 13.653-4.992 4.48 0 9.003 1.408 12.8 4.267l335.659 251.733h14.208c11.776 0 21.333 9.557 21.333 21.333s-9.557 21.333-21.333 21.333z" />
<glyph unicode="&#xe930;" glyph-name="Dismiss-Chat2" data-tags="Dismiss-Chat 2" d="M512 746.667c-64.512 0-123.051-26.197-165.504-68.48-0.128-0.128-0.299-0.171-0.427-0.299s-0.171-0.299-0.299-0.427c-42.24-42.496-68.437-100.949-68.437-165.461 0-129.408 105.301-234.667 234.667-234.667 64.427 0 122.837 26.112 165.291 68.267 0.171 0.171 0.427 0.213 0.597 0.427 0.171 0.171 0.213 0.427 0.384 0.597 42.24 42.453 68.395 100.907 68.395 165.376 0 129.408-105.301 234.667-234.667 234.667zM704 512c0-45.269-16.384-86.357-42.709-119.211l-268.501 268.544c32.853 26.283 73.984 42.667 119.211 42.667 105.856 0 192-86.144 192-192zM320 512c0 45.227 16.384 86.315 42.667 119.168l268.459-268.501c-32.853-26.283-73.899-42.667-119.125-42.667-105.856 0-192 86.144-192 192zM512 917.333c-270.549 0-490.667-181.845-490.667-405.333 0-108.715 53.76-213.547 148.011-289.664l-61.824-216.491c-2.603-9.003 0.981-18.603 8.875-23.723 3.541-2.304 7.552-3.456 11.605-3.456 4.864 0 9.728 1.664 13.696 4.907l184.149 153.515c59.477-20.181 122.027-30.421 186.155-30.421 270.549 0 490.667 181.845 490.667 405.333s-220.117 405.333-490.667 405.333zM512 149.333c-63.275 0-124.971 10.752-183.211 31.957-7.125 2.645-15.104 1.195-20.949-3.627l-140.288-116.949 46.763 163.755c2.389 8.448-0.597 17.536-7.637 22.869-92.032 69.589-142.677 163.584-142.677 264.661 0 199.979 200.96 362.667 448 362.667s448-162.688 448-362.667c0-199.979-200.96-362.667-448-362.667z" />
<glyph unicode="&#xe931;" glyph-name="Dismiss-Chat3" data-tags="Dismiss-Chat 3" d="M955.605 5.291c42.24 42.453 68.395 100.907 68.395 165.376 0 129.408-105.301 234.667-234.667 234.667-64.512 0-123.051-26.197-165.504-68.48-0.128-0.128-0.299-0.171-0.427-0.299s-0.171-0.299-0.299-0.427c-42.24-42.496-68.437-100.949-68.437-165.461 0-129.408 105.301-234.667 234.667-234.667 64.427 0 122.837 26.112 165.291 68.267 0.171 0.171 0.427 0.213 0.597 0.427 0.171 0.171 0.213 0.427 0.384 0.597zM981.333 170.667c0-45.269-16.384-86.357-42.709-119.211l-268.501 268.544c32.853 26.283 73.941 42.667 119.211 42.667 105.856 0 192-86.144 192-192zM597.333 170.667c0 45.227 16.384 86.315 42.667 119.168l268.459-268.501c-32.853-26.283-73.899-42.667-119.125-42.667-105.856 0-192 86.144-192 192zM490.667 234.667h-256c-6.357 0-12.331-2.816-16.384-7.68l-175.616-210.731v751.744c0 82.347 66.987 149.333 149.333 149.333h597.333c82.347 0 149.333-66.987 149.333-149.333v-341.333c0-11.776 9.557-21.333 21.333-21.333s21.333 9.557 21.333 21.333v341.333c0 105.856-86.144 192-192 192h-597.333c-105.856 0-192-86.144-192-192v-810.667c0-8.96 5.632-16.981 14.080-20.053 2.389-0.853 4.821-1.28 7.253-1.28 6.229 0 12.245 2.688 16.341 7.68l206.976 248.32h246.016c11.776 0 21.333 9.557 21.333 21.333s-9.557 21.333-21.333 21.333zM213.333 554.667c0-35.285 28.715-64 64-64s64 28.715 64 64-28.715 64-64 64c-35.285 0-64-28.715-64-64zM298.667 554.667c0-11.776-9.6-21.333-21.333-21.333s-21.333 9.557-21.333 21.333 9.6 21.333 21.333 21.333c11.733 0 21.333-9.557 21.333-21.333zM490.667 618.667c-35.285 0-64-28.715-64-64s28.715-64 64-64c35.285 0 64 28.715 64 64s-28.715 64-64 64zM490.667 533.333c-11.733 0-21.333 9.557-21.333 21.333s9.6 21.333 21.333 21.333c11.733 0 21.333-9.557 21.333-21.333s-9.6-21.333-21.333-21.333zM640 554.667c0-35.285 28.715-64 64-64s64 28.715 64 64-28.715 64-64 64c-35.285 0-64-28.715-64-64zM725.333 554.667c0-11.776-9.6-21.333-21.333-21.333s-21.333 9.557-21.333 21.333 9.6 21.333 21.333 21.333c11.733 0 21.333-9.557 21.333-21.333z" />
<glyph unicode="&#xe932;" glyph-name="Dollar-Bag" data-tags="Dollar-Bag" d="M256 512c12.8 0 21.333 8.533 21.333 21.333v256c0 59.733 46.933 106.667 106.667 106.667h256c59.733 0 106.667-46.933 106.667-106.667v-256c0-12.8 8.533-21.333 21.333-21.333s21.333 8.533 21.333 21.333v256c0 81.067-68.267 149.333-149.333 149.333h-256c-81.067 0-149.333-68.267-149.333-149.333v-256c0-12.8 8.533-21.333 21.333-21.333zM512 85.333c128 0 234.667 106.667 234.667 234.667s-106.667 234.667-234.667 234.667-234.667-106.667-234.667-234.667 106.667-234.667 234.667-234.667zM512 512c106.667 0 192-85.333 192-192s-85.333-192-192-192-192 85.333-192 192 85.333 192 192 192zM981.333 682.667h-128c-12.8 0-21.333-8.533-21.333-21.333s8.533-21.333 21.333-21.333h106.667v-640h-896v640h106.667c12.8 0 21.333 8.533 21.333 21.333s-8.533 21.333-21.333 21.333h-128c-12.8 0-21.333-8.533-21.333-21.333v-682.667c0-12.8 8.533-21.333 21.333-21.333h938.667c12.8 0 21.333 8.533 21.333 21.333v682.667c0 12.8-8.533 21.333-21.333 21.333zM448 281.6c0 12.8-12.8 21.333-25.6 17.067-12.8 0-21.333-12.8-17.067-25.6 4.267-29.867 38.4-51.2 85.333-55.467v-21.333c0-12.8 8.533-21.333 21.333-21.333s21.333 8.533 21.333 21.333v21.333c51.2 4.267 85.333 29.867 85.333 64 0 42.667-51.2 55.467-85.333 59.733v42.667c25.6-4.267 42.667-12.8 42.667-21.333 0-12.8 12.8-21.333 25.6-17.067 12.8 0 21.333 12.8 17.067 25.6-4.267 29.867-38.4 51.2-85.333 55.467v21.333c0 12.8-8.533 21.333-21.333 21.333s-21.333-8.533-21.333-21.333v-21.333c-51.2-4.267-85.333-29.867-85.333-64 0-42.667 51.2-55.467 85.333-59.733v-42.667c-25.6 4.267-42.667 12.8-42.667 21.333zM533.333 294.4c42.667-8.533 42.667-17.067 42.667-17.067 0-4.267-12.8-12.8-42.667-21.333v38.4zM448 362.667c0 4.267 17.067 17.067 42.667 21.333v-38.4c-42.667 8.533-42.667 17.067-42.667 17.067zM682.667 640c12.8 0 21.333 8.533 21.333 21.333s-8.533 21.333-21.333 21.333h-341.333c-12.8 0-21.333-8.533-21.333-21.333s8.533-21.333 21.333-21.333h341.333z" />
</font>
</defs>
</svg>
